  0
SECTION
  2
HEADER
  9
$ACADVER
  1
AC1015
  9
$ACADMAINTVER
 70
     6
  9
$DWGCODEPAGE
  3
DOS932
  9
$INSBASE
 10
0.0
 20
0.0
 30
0.0
  9
$EXTMIN
 10
0.0
 20
0.0
 30
0.0
  9
$EXTMAX
 10
8400.0
 20
5940.0
 30
0.0
  9
$LIMMIN
 10
0.0
 20
0.0
  9
$LIMMAX
 10
8400.0
 20
5940.0
  9
$ORTHOMODE
 70
     0
  9
$REGENMODE
 70
     1
  9
$FILLMODE
 70
     1
  9
$QTEXTMODE
 70
     0
  9
$MIRRTEXT
 70
     1
  9
$LTSCALE
 40
5.0
  9
$ATTMODE
 70
     1
  9
$TEXTSIZE
 40
100.0
  9
$TRACEWID
 40
0.05
  9
$TEXTSTYLE
  7
Standard
  9
$CLAYER
  8
0
  9
$CELTYPE
  6
ByLayer
  9
$CECOLOR
 62
   256
  9
$CELTSCALE
 40
1.0
  9
$DISPSILH
 70
     0
  9
$DIMSCALE
 40
20.0
  9
$DIMASZ
 40
4.0
  9
$DIMEXO
 40
2.0
  9
$DIMDLI
 40
10.0
  9
$DIMRND
 40
0.0
  9
$DIMDLE
 40
0.0
  9
$DIMEXE
 40
2.0
  9
$DIMTP
 40
0.0
  9
$DIMTM
 40
0.0
  9
$DIMTXT
 40
4.0
  9
$DIMCEN
 40
0.09
  9
$DIMTSZ
 40
0.0
  9
$DIMTOL
 70
     0
  9
$DIMLIM
 70
     0
  9
$DIMTIH
 70
     0
  9
$DIMTOH
 70
     0
  9
$DIMSE1
 70
     0
  9
$DIMSE2
 70
     0
  9
$DIMTAD
 70
     3
  9
$DIMZIN
 70
     8
  9
$DIMBLK
  1

  9
$DIMASO
 70
     1
  9
$DIMSHO
 70
     1
  9
$DIMPOST
  1

  9
$DIMAPOST
  1

  9
$DIMALT
 70
     0
  9
$DIMALTD
 70
     2
  9
$DIMALTF
 40
25.4
  9
$DIMLFAC
 40
1.0
  9
$DIMTOFL
 70
     1
  9
$DIMTVP
 40
0.7
  9
$DIMTIX
 70
     0
  9
$DIMSOXD
 70
     0
  9
$DIMSAH
 70
     0
  9
$DIMBLK1
  1

  9
$DIMBLK2
  1

  9
$DIMSTYLE
  2
Standard
  9
$DIMCLRD
 70
     0
  9
$DIMCLRE
 70
     0
  9
$DIMCLRT
 70
     0
  9
$DIMTFAC
 40
0.5
  9
$DIMGAP
 40
0.09
  9
$DIMJUST
 70
     0
  9
$DIMSD1
 70
     0
  9
$DIMSD2
 70
     0
  9
$DIMTOLJ
 70
     1
  9
$DIMTZIN
 70
     8
  9
$DIMALTZ
 70
     0
  9
$DIMALTTZ
 70
     0
  9
$DIMUPT
 70
     1
  9
$DIMDEC
 70
     2
  9
$DIMTDEC
 70
     4
  9
$DIMALTU
 70
     2
  9
$DIMALTTD
 70
     2
  9
$DIMTXSTY
  7
Standard
  9
$DIMAUNIT
 70
     0
  9
$DIMADEC
 70
     0
  9
$DIMALTRND
 40
0.0
  9
$DIMAZIN
 70
     0
  9
$DIMDSEP
 70
    46
  9
$DIMATFIT
 70
     2
  9
$DIMFRAC
 70
     0
  9
$DIMLDRBLK
  1

  9
$DIMLUNIT
 70
     2
  9
$DIMLWD
 70
    -2
  9
$DIMLWE
 70
    -2
  9
$DIMTMOVE
 70
     2
  9
$LUNITS
 70
     2
  9
$LUPREC
 70
     4
  9
$SKETCHINC
 40
0.1
  9
$FILLETRAD
 40
0.5
  9
$AUNITS
 70
     0
  9
$AUPREC
 70
     0
  9
$MENU
  1
.
  9
$ELEVATION
 40
0.0
  9
$PELEVATION
 40
0.0
  9
$THICKNESS
 40
0.0
  9
$LIMCHECK
 70
     0
  9
$CHAMFERA
 40
0.5
  9
$CHAMFERB
 40
0.5
  9
$CHAMFERC
 40
1.0
  9
$CHAMFERD
 40
0.0
  9
$SKPOLY
 70
     0
  9
$TDCREATE
 40
2456200.107256944
  9
$TDUCREATE
 40
2456199.732256944
  9
$TDUPDATE
 40
2456200.107256944
  9
$TDUUPDATE
 40
2456199.732256944
  9
$TDINDWG
 40
0.0000000116
  9
$TDUSRTIMER
 40
0.0000000116
  9
$USRTIMER
 70
     1
  9
$ANGBASE
 50
0.0
  9
$ANGDIR
 70
     0
  9
$PDMODE
 70
     0
  9
$PDSIZE
 40
0.0
  9
$PLINEWID
 40
0.0
  9
$SPLFRAME
 70
     0
  9
$SPLINETYPE
 70
     6
  9
$SPLINESEGS
 70
     8
  9
$HANDSEED
  5
5CF
  9
$SURFTAB1
 70
     6
  9
$SURFTAB2
 70
     6
  9
$SURFTYPE
 70
     6
  9
$SURFU
 70
     6
  9
$SURFV
 70
     6
  9
$UCSBASE
  2

  9
$UCSNAME
  2

  9
$UCSORG
 10
0.0
 20
0.0
 30
0.0
  9
$UCSXDIR
 10
1.0
 20
0.0
 30
0.0
  9
$UCSYDIR
 10
0.0
 20
1.0
 30
0.0
  9
$UCSORTHOREF
  2

  9
$UCSORTHOVIEW
 70
     0
  9
$UCSORGTOP
 10
0.0
 20
0.0
 30
0.0
  9
$UCSORGBOTTOM
 10
0.0
 20
0.0
 30
0.0
  9
$UCSORGLEFT
 10
0.0
 20
0.0
 30
0.0
  9
$UCSORGRIGHT
 10
0.0
 20
0.0
 30
0.0
  9
$UCSORGFRONT
 10
0.0
 20
0.0
 30
0.0
  9
$UCSORGBACK
 10
0.0
 20
0.0
 30
0.0
  9
$PUCSBASE
  2

  9
$PUCSNAME
  2

  9
$PUCSORG
 10
0.0
 20
0.0
 30
0.0
  9
$PUCSXDIR
 10
1.0
 20
0.0
 30
0.0
  9
$PUCSYDIR
 10
0.0
 20
1.0
 30
0.0
  9
$PUCSORTHOREF
  2

  9
$PUCSORTHOVIEW
 70
     0
  9
$PUCSORGTOP
 10
0.0
 20
0.0
 30
0.0
  9
$PUCSORGBOTTOM
 10
0.0
 20
0.0
 30
0.0
  9
$PUCSORGLEFT
 10
0.0
 20
0.0
 30
0.0
  9
$PUCSORGRIGHT
 10
0.0
 20
0.0
 30
0.0
  9
$PUCSORGFRONT
 10
0.0
 20
0.0
 30
0.0
  9
$PUCSORGBACK
 10
0.0
 20
0.0
 30
0.0
  9
$USERI1
 70
     0
  9
$USERI2
 70
     0
  9
$USERI3
 70
     0
  9
$USERI4
 70
     0
  9
$USERI5
 70
     0
  9
$USERR1
 40
0.0
  9
$USERR2
 40
0.0
  9
$USERR3
 40
0.0
  9
$USERR4
 40
0.0
  9
$USERR5
 40
0.0
  9
$WORLDVIEW
 70
     1
  9
$SHADEDGE
 70
     3
  9
$SHADEDIF
 70
    70
  9
$TILEMODE
 70
     1
  9
$MAXACTVP
 70
    64
  9
$PINSBASE
 10
0.0
 20
0.0
 30
0.0
  9
$PLIMCHECK
 70
     0
  9
$PEXTMIN
 10
0.0
 20
0.0
 30
0.0
  9
$PEXTMAX
 10
420.0
 20
297.0
 30
0.0
  9
$PLIMMIN
 10
0.0
 20
0.0
  9
$PLIMMAX
 10
420.0
 20
297.0
  9
$UNITMODE
 70
     0
  9
$VISRETAIN
 70
     1
  9
$PLINEGEN
 70
     0
  9
$PSLTSCALE
 70
     1
  9
$TREEDEPTH
 70
  3020
  9
$CMLSTYLE
  2
Standard
  9
$CMLJUST
 70
     0
  9
$CMLSCALE
 40
1.0
  9
$PROXYGRAPHICS
 70
     1
  9
$MEASUREMENT
 70
     1
  9
$CELWEIGHT
370
    -1
  9
$ENDCAPS
280
     0
  9
$JOINSTYLE
280
     0
  9
$LWDISPLAY
290
     0
  9
$INSUNITS
 70
     1
  9
$HYPERLINKBASE
  1

  9
$STYLESHEET
  1

  9
$XEDIT
290
     1
  9
$CEPSNTYPE
380
     0
  9
$PSTYLEMODE
290
     1
  9
$FINGERPRINTGUID
  2
{3FAFEC85-376B-4440-AC78-202DC9DB1445}
  9
$VERSIONGUID
  2
{FAEB1C32-E019-11D5-929B-00C0DF256EC4}
  9
$EXTNAMES
290
     1
  9
$PSVPSCALE
 40
0.0
  9
$OLESTARTUP
290
     0
  0
ENDSEC
  0
SECTION
  2
CLASSES
  0
CLASS
  1
ACDBDICTIONARYWDFLT
  2
AcDbDictionaryWithDefault
  3
ObjectDBX Classes
 90
        0
280
     0
281
     0
  0
CLASS
  1
VISUALSTYLE
  2
AcDbVisualStyle
  3
ObjectDBX Classes
 90
     4095
280
     0
281
     0
  0
CLASS
  1
DICTIONARYVAR
  2
AcDbDictionaryVar
  3
ObjectDBX Classes
 90
        0
280
     0
281
     0
  0
CLASS
  1
ACDBPLACEHOLDER
  2
AcDbPlaceHolder
  3
ObjectDBX Classes
 90
        0
280
     0
281
     0
  0
CLASS
  1
LAYOUT
  2
AcDbLayout
  3
ObjectDBX Classes
 90
        0
280
     0
281
     0
  0
ENDSEC
  0
SECTION
  2
TABLES
  0
TABLE
  2
VPORT
  5
8
330
0
100
AcDbSymbolTable
 70
     1
  0
VPORT
  5
29
330
8
100
AcDbSymbolTableRecord
100
AcDbViewportTableRecord
  2
*Active
 70
     0
 10
0.0
 20
0.0
 11
1.0
 21
1.0
 12
10.42990654205607
 22
4.5
 13
0.0
 23
0.0
 14
0.5
 24
0.5
 15
0.5
 25
0.5
 16
0.0
 26
0.0
 36
1.0
 17
0.0
 27
0.0
 37
0.0
 40
9.0
 41
1.972972972850329
 42
50.0
 43
0.0
 44
0.0
 50
0.0
 51
0.0
 71
     0
 72
   100
 73
     1
 74
     3
 75
     0
 76
     0
 77
     0
 78
     0
281
     0
 65
     1
110
0.0
120
0.0
130
0.0
111
1.0
121
0.0
131
0.0
112
0.0
122
1.0
132
0.0
 79
     0
146
0.0
  0
ENDTAB
  0
TABLE
  2
LTYPE
  5
5
330
0
100
AcDbSymbolTable
 70
     9
  0
LTYPE
  5
14
330
5
100
AcDbSymbolTableRecord
100
AcDbLinetypeTableRecord
  2
ByBlock
 70
     0
  3

 72
    65
 73
     0
 40
0.0
  0
LTYPE
  5
15
330
5
100
AcDbSymbolTableRecord
100
AcDbLinetypeTableRecord
  2
ByLayer
 70
     0
  3

 72
    65
 73
     0
 40
0.0
  0
LTYPE
  5
16
330
5
100
AcDbSymbolTableRecord
100
AcDbLinetypeTableRecord
  2
Continuous
 70
     0
  3
Solid line
 72
    65
 73
     0
 40
0.0
  0
LTYPE
  5
79
330
5
100
AcDbSymbolTableRecord
100
AcDbLinetypeTableRecord
  2
DOT
 70
     0
  3
DOT
 72
    65
 73
     2
 40
4.0
 49
6.0
 74
     0
 49
-2.0
 74
     0
  0
LTYPE
  5
7A
330
5
100
AcDbSymbolTableRecord
100
AcDbLinetypeTableRecord
  2
HIDDEN
 70
     0
  3
HIDDEN
 72
    65
 73
     2
 40
4.2
 49
8.4
 74
     0
 49
-4.2
 74
     0
  0
LTYPE
  5
7B
330
5
100
AcDbSymbolTableRecord
100
AcDbLinetypeTableRecord
  2
DASHDOT
 70
     0
  3
DASHDOT
 72
    65
 73
     4
 40
14.5
 49
30.0
 74
     0
 49
-9.0
 74
     0
 49
2.5
 74
     0
 49
-9.0
 74
     0
  0
LTYPE
  5
7C
330
5
100
AcDbSymbolTableRecord
100
AcDbLinetypeTableRecord
  2
PHANTOM
 70
     0
  3
PHANTOM
 72
    65
 73
     6
 40
12.0
 49
30.0
 74
     0
 49
-9.0
 74
     0
 49
2.5
 74
     0
 49
-5.0
 74
     0
 49
2.5
 74
     0
 49
-9.0
 74
     0
  0
LTYPE
  5
7D
330
5
100
AcDbSymbolTableRecord
100
AcDbLinetypeTableRecord
  2
ACAD_ISO14W100
 70
     0
  3
ACAD_ISO14W100
 72
    65
 73
     8
 40
1.5
 49
12.0
 74
     0
 49
-3.0
 74
     0
 49
0.5
 74
     0
 49
-3.0
 74
     0
 49
0.5
 74
     0
 49
-3.0
 74
     0
 49
0.5
 74
     0
 49
-3.0
 74
     0
  0
LTYPE
  5
7E
330
5
100
AcDbSymbolTableRecord
100
AcDbLinetypeTableRecord
  2
ACAD_ISO06W100
 70
     0
  3
ACAD_ISO06W100
 72
    65
 73
     8
 40
13.5
 49
24.0
 74
     0
 49
-3.0
 74
     0
 49
0.5
 74
     0
 49
-3.0
 74
     0
 49
0.5
 74
     0
 49
-3.0
 74
     0
 49
0.5
 74
     0
 49
-3.0
 74
     0
  0
LTYPE
  5
7F
330
5
100
AcDbSymbolTableRecord
100
AcDbLinetypeTableRecord
  2
ACAD_ISO11W100
 70
     0
  3
ACAD_ISO11W100
 72
    65
 73
     6
 40
15.5
 49
12.0
 74
     0
 49
-3.0
 74
     0
 49
12.0
 74
     0
 49
-3.0
 74
     0
 49
0.5
 74
     0
 49
-3.0
 74
     0
  0
LTYPE
  5
80
330
5
100
AcDbSymbolTableRecord
100
AcDbLinetypeTableRecord
  2
ACAD_ISO13W100
 70
     0
  3
ACAD_ISO13W100
 72
    65
 73
     8
 40
13.0
 49
12.0
 74
     0
 49
-3.0
 74
     0
 49
12.0
 74
     0
 49
-3.0
 74
     0
 49
0.5
 74
     0
 49
-3.0
 74
     0
 49
0.5
 74
     0
 49
-3.0
 74
     0
  0
ENDTAB
  0
TABLE
  2
LAYER
  5
2
330
0
100
AcDbSymbolTable
 70
    22
  0
LAYER
  5
10
330
2
100
AcDbSymbolTableRecord
100
AcDbLayerTableRecord
  2
0
 70
     0
 62
     7
  6
Continuous
370
    -3
390
F
  0
LAYER
  5
81
330
2
100
AcDbSymbolTableRecord
100
AcDbLayerTableRecord
  2
1
 70
     0
 62
     7
  6
Continuous
370
    -3
390
F
  0
LAYER
  5
82
330
2
100
AcDbSymbolTableRecord
100
AcDbLayerTableRecord
  2
2
 70
     0
 62
     7
  6
Continuous
370
    -3
390
F
  0
LAYER
  5
83
330
2
100
AcDbSymbolTableRecord
100
AcDbLayerTableRecord
  2
3
 70
     0
 62
   214
  6
Continuous
370
    -3
390
F
  0
LAYER
  5
84
330
2
100
AcDbSymbolTableRecord
100
AcDbLayerTableRecord
  2
4
 70
     0
 62
    54
  6
Continuous
370
    -3
390
F
  0
LAYER
  5
85
330
2
100
AcDbSymbolTableRecord
100
AcDbLayerTableRecord
  2
5
 70
     0
 62
    94
  6
Continuous
370
    -3
390
F
  0
LAYER
  5
86
330
2
100
AcDbSymbolTableRecord
100
AcDbLayerTableRecord
  2
6
 70
     0
 62
    14
  6
Continuous
370
    -3
390
F
  0
LAYER
  5
87
330
2
100
AcDbSymbolTableRecord
100
AcDbLayerTableRecord
  2
7
 70
     0
 62
     4
  6
Continuous
370
    -3
390
F
  0
LAYER
  5
88
330
2
100
AcDbSymbolTableRecord
100
AcDbLayerTableRecord
  2
8
 70
     0
 62
     6
  6
Continuous
370
    -3
390
F
  0
LAYER
  5
89
330
2
100
AcDbSymbolTableRecord
100
AcDbLayerTableRecord
  2
9
 70
     0
 62
     2
  6
Continuous
370
    -3
390
F
  0
LAYER
  5
8A
330
2
100
AcDbSymbolTableRecord
100
AcDbLayerTableRecord
  2
10
 70
     0
 62
     3
  6
Continuous
370
    -3
390
F
  0
LAYER
  5
8B
330
2
100
AcDbSymbolTableRecord
100
AcDbLayerTableRecord
  2
11
 70
     0
 62
   251
  6
Continuous
370
    -3
390
F
  0
LAYER
  5
8C
330
2
100
AcDbSymbolTableRecord
100
AcDbLayerTableRecord
  2
12
 70
     0
 62
   136
  6
Continuous
370
    -3
390
F
  0
LAYER
  5
8D
330
2
100
AcDbSymbolTableRecord
100
AcDbLayerTableRecord
  2
13
 70
     0
 62
   216
  6
Continuous
370
    -3
390
F
  0
LAYER
  5
8E
330
2
100
AcDbSymbolTableRecord
100
AcDbLayerTableRecord
  2
14
 70
     0
 62
    56
  6
Continuous
370
    -3
390
F
  0
LAYER
  5
8F
330
2
100
AcDbSymbolTableRecord
100
AcDbLayerTableRecord
  2
15
 70
     0
 62
    96
  6
Continuous
370
    -3
390
F
  0
LAYER
  5
90
330
2
100
AcDbSymbolTableRecord
100
AcDbLayerTableRecord
  2
16
 70
     0
 62
    16
  6
Continuous
370
    -3
390
F
  0
LAYER
  5
91
330
2
100
AcDbSymbolTableRecord
100
AcDbLayerTableRecord
  2
17
 70
     0
 62
   132
  6
Continuous
370
    -3
390
F
  0
LAYER
  5
92
330
2
100
AcDbSymbolTableRecord
100
AcDbLayerTableRecord
  2
18
 70
     0
 62
   212
  6
Continuous
370
    -3
390
F
  0
LAYER
  5
93
330
2
100
AcDbSymbolTableRecord
100
AcDbLayerTableRecord
  2
19
 70
     0
 62
    52
  6
Continuous
370
    -3
390
F
  0
LAYER
  5
94
330
2
100
AcDbSymbolTableRecord
100
AcDbLayerTableRecord
  2
20
 70
     0
 62
   250
  6
Continuous
370
    -3
390
F
  0
LAYER
  5
95
330
2
100
AcDbSymbolTableRecord
100
AcDbLayerTableRecord
  2
128
 70
     0
 62
     7
  6
Continuous
370
    -3
390
F
  0
ENDTAB
  0
TABLE
  2
STYLE
  5
3
330
0
100
AcDbSymbolTable
 70
     2
  0
STYLE
  5
11
330
3
100
AcDbSymbolTableRecord
100
AcDbTextStyleTableRecord
  2
Standard
 70
     0
 40
0.0
 41
1.0
 50
0.0
 71
     0
 42
0.2
  3
txt
  4
bigfont
  0
STYLE
  5
3D
330
3
100
AcDbSymbolTableRecord
100
AcDbTextStyleTableRecord
  2
T_STANDARD
 70
     4
 40
10.0
 41
1.0
 50
0.0
 71
     0
 42
10.0
  3
txt
  4
bigfont
  0
ENDTAB
  0
TABLE
  2
VIEW
  5
6
330
0
100
AcDbSymbolTable
 70
     0
  0
ENDTAB
  0
TABLE
  2
UCS
  5
7
330
0
100
AcDbSymbolTable
 70
     0
  0
ENDTAB
  0
TABLE
  2
APPID
  5
9
330
0
100
AcDbSymbolTable
 70
     2
  0
APPID
  5
12
330
9
100
AcDbSymbolTableRecord
100
AcDbRegAppTableRecord
  2
ACAD
 70
     0
  0
APPID
  5
3C
330
9
100
AcDbSymbolTableRecord
100
AcDbRegAppTableRecord
  2
ODA
 70
     0
  0
ENDTAB
  0
TABLE
  2
DIMSTYLE
  5
A
330
0
100
AcDbSymbolTable
 70
     1
100
AcDbDimStyleTable
  0
DIMSTYLE
105
27
102
{ACAD_REACTORS
330
B2
330
C6
330
10C
330
120
330
134
330
148
330
15C
330
170
330
184
330
198
330
1AC
330
1C0
330
1D4
330
2DF
330
2F3
330
307
330
31B
330
345
330
359
330
36D
330
381
330
396
330
3AA
330
3BE
330
3D2
330
3E6
330
3FA
330
40E
330
422
330
436
330
44A
330
45E
330
472
330
489
330
49D
330
4B1
330
4D5
330
4E9
330
4FD
330
52F
102
}
330
A
100
AcDbSymbolTableRecord
100
AcDbDimStyleTableRecord
  2
Standard
 70
     0
340
11
  0
ENDTAB
  0
TABLE
  2
BLOCK_RECORD
  5
1
330
0
100
AcDbSymbolTable
 70
    89
  0
BLOCK_RECORD
  5
1F
330
1
100
AcDbSymbolTableRecord
100
AcDbBlockTableRecord
  2
*Model_Space
340
22
  0
BLOCK_RECORD
  5
1B
330
1
100
AcDbSymbolTableRecord
100
AcDbBlockTableRecord
  2
*Paper_Space
340
1E
  0
BLOCK_RECORD
  5
23
330
1
100
AcDbSymbolTableRecord
100
AcDbBlockTableRecord
  2
*Paper_Space0
340
26
  0
BLOCK_RECORD
  5
3E
330
1
100
AcDbSymbolTableRecord
100
AcDbBlockTableRecord
  2
_ORIGIN
340
0
  0
BLOCK_RECORD
  5
43
330
1
100
AcDbSymbolTableRecord
100
AcDbBlockTableRecord
  2
_DOTBLANK
340
0
  0
BLOCK_RECORD
  5
48
330
1
100
AcDbSymbolTableRecord
100
AcDbBlockTableRecord
  2
_DOT
340
0
  0
BLOCK_RECORD
  5
4D
330
1
100
AcDbSymbolTableRecord
100
AcDbBlockTableRecord
  2
_OPEN
340
0
  0
BLOCK_RECORD
  5
53
330
1
100
AcDbSymbolTableRecord
100
AcDbBlockTableRecord
  2
_CLOSED
340
0
  0
BLOCK_RECORD
  5
5A
330
1
100
AcDbSymbolTableRecord
100
AcDbBlockTableRecord
  2
_CLOSEDBLANK
340
0
  0
BLOCK_RECORD
  5
60
330
1
100
AcDbSymbolTableRecord
100
AcDbBlockTableRecord
  2
_BOXBLANK
340
0
  0
BLOCK_RECORD
  5
68
330
1
100
AcDbSymbolTableRecord
100
AcDbBlockTableRecord
  2
_BOXFILLED
340
0
  0
BLOCK_RECORD
  5
6D
330
1
100
AcDbSymbolTableRecord
100
AcDbBlockTableRecord
  2
_INTEGRAL
340
0
  0
BLOCK_RECORD
  5
72
330
1
100
AcDbSymbolTableRecord
100
AcDbBlockTableRecord
  2
_OBLIQUE
340
0
  0
BLOCK_RECORD
  5
76
330
1
100
AcDbSymbolTableRecord
100
AcDbBlockTableRecord
  2
_NONE
340
0
  0
BLOCK_RECORD
  5
9F
330
1
100
AcDbSymbolTableRecord
100
AcDbBlockTableRecord
  2
Dim1
340
0
  0
BLOCK_RECORD
  5
B3
330
1
100
AcDbSymbolTableRecord
100
AcDbBlockTableRecord
  2
Dim2
340
0
  0
BLOCK_RECORD
  5
C7
330
1
100
AcDbSymbolTableRecord
100
AcDbBlockTableRecord
  2
*G14
340
0
102
{BLKREFS
331
CE
102
}
  0
BLOCK_RECORD
  5
D0
330
1
100
AcDbSymbolTableRecord
100
AcDbBlockTableRecord
  2
*G15
340
0
102
{BLKREFS
331
D7
102
}
  0
BLOCK_RECORD
  5
D8
330
1
100
AcDbSymbolTableRecord
100
AcDbBlockTableRecord
  2
*G16
340
0
102
{BLKREFS
331
DF
102
}
  0
BLOCK_RECORD
  5
E0
330
1
100
AcDbSymbolTableRecord
100
AcDbBlockTableRecord
  2
*G17
340
0
102
{BLKREFS
331
E7
102
}
  0
BLOCK_RECORD
  5
E8
330
1
100
AcDbSymbolTableRecord
100
AcDbBlockTableRecord
  2
*G18
340
0
102
{BLKREFS
331
EF
102
}
  0
BLOCK_RECORD
  5
F1
330
1
100
AcDbSymbolTableRecord
100
AcDbBlockTableRecord
  2
*G19
340
0
102
{BLKREFS
331
F8
102
}
  0
BLOCK_RECORD
  5
F9
330
1
100
AcDbSymbolTableRecord
100
AcDbBlockTableRecord
  2
Dim3
340
0
  0
BLOCK_RECORD
  5
10D
330
1
100
AcDbSymbolTableRecord
100
AcDbBlockTableRecord
  2
Dim4
340
0
  0
BLOCK_RECORD
  5
121
330
1
100
AcDbSymbolTableRecord
100
AcDbBlockTableRecord
  2
Dim5
340
0
  0
BLOCK_RECORD
  5
135
330
1
100
AcDbSymbolTableRecord
100
AcDbBlockTableRecord
  2
Dim6
340
0
  0
BLOCK_RECORD
  5
149
330
1
100
AcDbSymbolTableRecord
100
AcDbBlockTableRecord
  2
Dim7
340
0
  0
BLOCK_RECORD
  5
15D
330
1
100
AcDbSymbolTableRecord
100
AcDbBlockTableRecord
  2
Dim8
340
0
  0
BLOCK_RECORD
  5
171
330
1
100
AcDbSymbolTableRecord
100
AcDbBlockTableRecord
  2
Dim9
340
0
  0
BLOCK_RECORD
  5
185
330
1
100
AcDbSymbolTableRecord
100
AcDbBlockTableRecord
  2
Dim10
340
0
  0
BLOCK_RECORD
  5
199
330
1
100
AcDbSymbolTableRecord
100
AcDbBlockTableRecord
  2
Dim11
340
0
  0
BLOCK_RECORD
  5
1AD
330
1
100
AcDbSymbolTableRecord
100
AcDbBlockTableRecord
  2
Dim12
340
0
  0
BLOCK_RECORD
  5
1C1
330
1
100
AcDbSymbolTableRecord
100
AcDbBlockTableRecord
  2
Dim13
340
0
  0
BLOCK_RECORD
  5
1F2
330
1
100
AcDbSymbolTableRecord
100
AcDbBlockTableRecord
  2
*G31
340
0
102
{BLKREFS
331
1F9
102
}
  0
BLOCK_RECORD
  5
1FA
330
1
100
AcDbSymbolTableRecord
100
AcDbBlockTableRecord
  2
*G32
340
0
102
{BLKREFS
331
201
102
}
  0
BLOCK_RECORD
  5
204
330
1
100
AcDbSymbolTableRecord
100
AcDbBlockTableRecord
  2
*G33
340
0
102
{BLKREFS
331
20B
102
}
  0
BLOCK_RECORD
  5
20C
330
1
100
AcDbSymbolTableRecord
100
AcDbBlockTableRecord
  2
*G34
340
0
102
{BLKREFS
331
213
102
}
  0
BLOCK_RECORD
  5
214
330
1
100
AcDbSymbolTableRecord
100
AcDbBlockTableRecord
  2
*G35
340
0
102
{BLKREFS
331
21B
102
}
  0
BLOCK_RECORD
  5
21C
330
1
100
AcDbSymbolTableRecord
100
AcDbBlockTableRecord
  2
*G36
340
0
102
{BLKREFS
331
223
102
}
  0
BLOCK_RECORD
  5
224
330
1
100
AcDbSymbolTableRecord
100
AcDbBlockTableRecord
  2
*G37
340
0
102
{BLKREFS
331
22B
102
}
  0
BLOCK_RECORD
  5
22C
330
1
100
AcDbSymbolTableRecord
100
AcDbBlockTableRecord
  2
*G38
340
0
102
{BLKREFS
331
233
102
}
  0
BLOCK_RECORD
  5
238
330
1
100
AcDbSymbolTableRecord
100
AcDbBlockTableRecord
  2
*G39
340
0
102
{BLKREFS
331
23F
102
}
  0
BLOCK_RECORD
  5
240
330
1
100
AcDbSymbolTableRecord
100
AcDbBlockTableRecord
  2
*G40
340
0
102
{BLKREFS
331
247
102
}
  0
BLOCK_RECORD
  5
248
330
1
100
AcDbSymbolTableRecord
100
AcDbBlockTableRecord
  2
*G41
340
0
102
{BLKREFS
331
24F
102
}
  0
BLOCK_RECORD
  5
250
330
1
100
AcDbSymbolTableRecord
100
AcDbBlockTableRecord
  2
*G42
340
0
102
{BLKREFS
331
257
102
}
  0
BLOCK_RECORD
  5
25D
330
1
100
AcDbSymbolTableRecord
100
AcDbBlockTableRecord
  2
*G43
340
0
102
{BLKREFS
331
264
102
}
  0
BLOCK_RECORD
  5
265
330
1
100
AcDbSymbolTableRecord
100
AcDbBlockTableRecord
  2
*G44
340
0
102
{BLKREFS
331
26C
102
}
  0
BLOCK_RECORD
  5
26D
330
1
100
AcDbSymbolTableRecord
100
AcDbBlockTableRecord
  2
*G45
340
0
102
{BLKREFS
331
274
102
}
  0
BLOCK_RECORD
  5
275
330
1
100
AcDbSymbolTableRecord
100
AcDbBlockTableRecord
  2
*G46
340
0
102
{BLKREFS
331
27C
102
}
  0
BLOCK_RECORD
  5
27D
330
1
100
AcDbSymbolTableRecord
100
AcDbBlockTableRecord
  2
*G47
340
0
102
{BLKREFS
331
284
102
}
  0
BLOCK_RECORD
  5
286
330
1
100
AcDbSymbolTableRecord
100
AcDbBlockTableRecord
  2
*G48
340
0
102
{BLKREFS
331
28D
102
}
  0
BLOCK_RECORD
  5
28E
330
1
100
AcDbSymbolTableRecord
100
AcDbBlockTableRecord
  2
*G49
340
0
102
{BLKREFS
331
295
102
}
  0
BLOCK_RECORD
  5
296
330
1
100
AcDbSymbolTableRecord
100
AcDbBlockTableRecord
  2
*G50
340
0
102
{BLKREFS
331
29D
102
}
  0
BLOCK_RECORD
  5
29E
330
1
100
AcDbSymbolTableRecord
100
AcDbBlockTableRecord
  2
*G51
340
0
102
{BLKREFS
331
2A5
102
}
  0
BLOCK_RECORD
  5
2A6
330
1
100
AcDbSymbolTableRecord
100
AcDbBlockTableRecord
  2
*G52
340
0
102
{BLKREFS
331
2AD
102
}
  0
BLOCK_RECORD
  5
2AE
330
1
100
AcDbSymbolTableRecord
100
AcDbBlockTableRecord
  2
*G53
340
0
102
{BLKREFS
331
2B5
102
}
  0
BLOCK_RECORD
  5
2B6
330
1
100
AcDbSymbolTableRecord
100
AcDbBlockTableRecord
  2
*G54
340
0
102
{BLKREFS
331
2BD
102
}
  0
BLOCK_RECORD
  5
2BE
330
1
100
AcDbSymbolTableRecord
100
AcDbBlockTableRecord
  2
*G55
340
0
102
{BLKREFS
331
2C5
102
}
  0
BLOCK_RECORD
  5
2CC
330
1
100
AcDbSymbolTableRecord
100
AcDbBlockTableRecord
  2
Dim14
340
0
  0
BLOCK_RECORD
  5
2E0
330
1
100
AcDbSymbolTableRecord
100
AcDbBlockTableRecord
  2
Dim15
340
0
  0
BLOCK_RECORD
  5
2F4
330
1
100
AcDbSymbolTableRecord
100
AcDbBlockTableRecord
  2
Dim16
340
0
  0
BLOCK_RECORD
  5
308
330
1
100
AcDbSymbolTableRecord
100
AcDbBlockTableRecord
  2
Dim17
340
0
  0
BLOCK_RECORD
  5
31C
330
1
100
AcDbSymbolTableRecord
100
AcDbBlockTableRecord
  2
*G60
340
0
102
{BLKREFS
331
323
102
}
  0
BLOCK_RECORD
  5
324
330
1
100
AcDbSymbolTableRecord
100
AcDbBlockTableRecord
  2
*G61
340
0
102
{BLKREFS
331
32B
102
}
  0
BLOCK_RECORD
  5
332
330
1
100
AcDbSymbolTableRecord
100
AcDbBlockTableRecord
  2
Dim18
340
0
  0
BLOCK_RECORD
  5
346
330
1
100
AcDbSymbolTableRecord
100
AcDbBlockTableRecord
  2
Dim19
340
0
  0
BLOCK_RECORD
  5
35A
330
1
100
AcDbSymbolTableRecord
100
AcDbBlockTableRecord
  2
Dim20
340
0
  0
BLOCK_RECORD
  5
36E
330
1
100
AcDbSymbolTableRecord
100
AcDbBlockTableRecord
  2
Dim21
340
0
  0
BLOCK_RECORD
  5
383
330
1
100
AcDbSymbolTableRecord
100
AcDbBlockTableRecord
  2
Dim22
340
0
  0
BLOCK_RECORD
  5
397
330
1
100
AcDbSymbolTableRecord
100
AcDbBlockTableRecord
  2
Dim23
340
0
  0
BLOCK_RECORD
  5
3AB
330
1
100
AcDbSymbolTableRecord
100
AcDbBlockTableRecord
  2
Dim24
340
0
  0
BLOCK_RECORD
  5
3BF
330
1
100
AcDbSymbolTableRecord
100
AcDbBlockTableRecord
  2
Dim25
340
0
  0
BLOCK_RECORD
  5
3D3
330
1
100
AcDbSymbolTableRecord
100
AcDbBlockTableRecord
  2
Dim26
340
0
  0
BLOCK_RECORD
  5
3E7
330
1
100
AcDbSymbolTableRecord
100
AcDbBlockTableRecord
  2
Dim27
340
0
  0
BLOCK_RECORD
  5
3FB
330
1
100
AcDbSymbolTableRecord
100
AcDbBlockTableRecord
  2
Dim28
340
0
  0
BLOCK_RECORD
  5
40F
330
1
100
AcDbSymbolTableRecord
100
AcDbBlockTableRecord
  2
Dim29
340
0
  0
BLOCK_RECORD
  5
423
330
1
100
AcDbSymbolTableRecord
100
AcDbBlockTableRecord
  2
Dim30
340
0
  0
BLOCK_RECORD
  5
437
330
1
100
AcDbSymbolTableRecord
100
AcDbBlockTableRecord
  2
Dim31
340
0
  0
BLOCK_RECORD
  5
44B
330
1
100
AcDbSymbolTableRecord
100
AcDbBlockTableRecord
  2
Dim32
340
0
  0
BLOCK_RECORD
  5
45F
330
1
100
AcDbSymbolTableRecord
100
AcDbBlockTableRecord
  2
Dim33
340
0
  0
BLOCK_RECORD
  5
476
330
1
100
AcDbSymbolTableRecord
100
AcDbBlockTableRecord
  2
Dim34
340
0
  0
BLOCK_RECORD
  5
48A
330
1
100
AcDbSymbolTableRecord
100
AcDbBlockTableRecord
  2
Dim35
340
0
  0
BLOCK_RECORD
  5
49E
330
1
100
AcDbSymbolTableRecord
100
AcDbBlockTableRecord
  2
Dim36
340
0
  0
BLOCK_RECORD
  5
4C2
330
1
100
AcDbSymbolTableRecord
100
AcDbBlockTableRecord
  2
Dim37
340
0
  0
BLOCK_RECORD
  5
4D6
330
1
100
AcDbSymbolTableRecord
100
AcDbBlockTableRecord
  2
Dim38
340
0
  0
BLOCK_RECORD
  5
4EA
330
1
100
AcDbSymbolTableRecord
100
AcDbBlockTableRecord
  2
Dim39
340
0
  0
BLOCK_RECORD
  5
519
330
1
100
AcDbSymbolTableRecord
100
AcDbBlockTableRecord
  2
*G84
340
0
102
{BLKREFS
331
520
102
}
  0
BLOCK_RECORD
  5
524
330
1
100
AcDbSymbolTableRecord
100
AcDbBlockTableRecord
  2
Dim40
340
0
  0
BLOCK_RECORD
  5
531
330
1
100
AcDbSymbolTableRecord
100
AcDbBlockTableRecord
  2
*G86
340
0
102
{BLKREFS
331
538
102
}
  0
BLOCK_RECORD
  5
539
330
1
100
AcDbSymbolTableRecord
100
AcDbBlockTableRecord
  2
*G87
340
0
102
{BLKREFS
331
540
102
}
  0
BLOCK_RECORD
  5
56F
330
1
100
AcDbSymbolTableRecord
100
AcDbBlockTableRecord
  2
*G88
340
0
102
{BLKREFS
331
578
102
}
  0
ENDTAB
  0
ENDSEC
  0
SECTION
  2
BLOCKS
  0
BLOCK
  5
20
330
1F
100
AcDbEntity
  8
0
100
AcDbBlockBegin
  2
*Model_Space
 70
     0
 71
     0
 10
0.0
 20
0.0
 30
0.0
  3
*Model_Space
  1

  0
ENDBLK
  5
21
330
1F
100
AcDbEntity
  8
0
100
AcDbBlockEnd
  0
BLOCK
  5
1C
330
1B
100
AcDbEntity
 67
     1
  8
0
100
AcDbBlockBegin
  2
*Paper_Space
 70
     0
 71
     0
 10
0.0
 20
0.0
 30
0.0
  3
*Paper_Space
  1

  0
ENDBLK
  5
1D
330
1B
100
AcDbEntity
 67
     1
  8
0
100
AcDbBlockEnd
  0
BLOCK
  5
24
330
23
100
AcDbEntity
  8
0
100
AcDbBlockBegin
  2
*Paper_Space0
 70
     0
 71
     0
 10
0.0
 20
0.0
 30
0.0
  3
*Paper_Space0
  1

  0
ENDBLK
  5
25
330
23
100
AcDbEntity
  8
0
100
AcDbBlockEnd
  0
BLOCK
  5
41
330
3E
100
AcDbEntity
  8
0
100
AcDbBlockBegin
  2
_ORIGIN
 70
     0
 71
     0
 10
0.0
 20
0.0
 30
0.0
  3
_ORIGIN
  1

  0
CIRCLE
  5
3F
330
3E
100
AcDbEntity
  8
0
100
AcDbCircle
 10
0.0
 20
0.0
 30
0.0
 40
0.5
  0
LINE
  5
40
330
3E
100
AcDbEntity
  8
0
100
AcDbLine
 10
0.0
 20
0.0
 30
0.0
 11
-1.0
 21
0.0
 31
0.0
  0
ENDBLK
  5
42
330
3E
100
AcDbEntity
  8
0
100
AcDbBlockEnd
  0
BLOCK
  5
46
330
43
100
AcDbEntity
  8
0
100
AcDbBlockBegin
  2
_DOTBLANK
 70
     0
 71
     0
 10
0.0
 20
0.0
 30
0.0
  3
_DOTBLANK
  1

  0
CIRCLE
  5
44
330
43
100
AcDbEntity
  8
0
100
AcDbCircle
 10
0.0
 20
0.0
 30
0.0
 40
0.5
  0
LINE
  5
45
330
43
100
AcDbEntity
  8
0
100
AcDbLine
 10
-0.5
 20
0.0
 30
0.0
 11
-1.0
 21
0.0
 31
0.0
  0
ENDBLK
  5
47
330
43
100
AcDbEntity
  8
0
100
AcDbBlockEnd
  0
BLOCK
  5
4B
330
48
100
AcDbEntity
  8
0
100
AcDbBlockBegin
  2
_DOT
 70
     0
 71
     0
 10
0.0
 20
0.0
 30
0.0
  3
_DOT
  1

  0
LWPOLYLINE
  5
49
330
48
100
AcDbEntity
  8
0
100
AcDbPolyline
 90
        2
 70
     1
 43
0.5
 10
-0.25
 20
0.0
 42
1.0
 10
0.25
 20
0.0
 42
1.0
  0
LINE
  5
4A
330
48
100
AcDbEntity
  8
0
100
AcDbLine
 10
-0.5
 20
0.0
 30
0.0
 11
-1.0
 21
0.0
 31
0.0
  0
ENDBLK
  5
4C
330
48
100
AcDbEntity
  8
0
100
AcDbBlockEnd
  0
BLOCK
  5
51
330
4D
100
AcDbEntity
  8
0
100
AcDbBlockBegin
  2
_OPEN
 70
     0
 71
     0
 10
0.0
 20
0.0
 30
0.0
  3
_OPEN
  1

  0
LINE
  5
4E
330
4D
100
AcDbEntity
  8
0
100
AcDbLine
 10
-1.0
 20
0.1666666666666667
 30
0.0
 11
0.0
 21
0.0
 31
0.0
  0
LINE
  5
4F
330
4D
100
AcDbEntity
  8
0
100
AcDbLine
 10
-1.0
 20
-0.1666666666666667
 30
0.0
 11
0.0
 21
0.0
 31
0.0
  0
LINE
  5
50
330
4D
100
AcDbEntity
  8
0
100
AcDbLine
 10
0.0
 20
0.0
 30
0.0
 11
-1.0
 21
0.0
 31
0.0
  0
ENDBLK
  5
52
330
4D
100
AcDbEntity
  8
0
100
AcDbBlockEnd
  0
BLOCK
  5
58
330
53
100
AcDbEntity
  8
0
100
AcDbBlockBegin
  2
_CLOSED
 70
     0
 71
     0
 10
0.0
 20
0.0
 30
0.0
  3
_CLOSED
  1

  0
LINE
  5
54
330
53
100
AcDbEntity
  8
0
100
AcDbLine
 10
-1.0
 20
0.1666666666666667
 30
0.0
 11
0.0
 21
0.0
 31
0.0
  0
LINE
  5
55
330
53
100
AcDbEntity
  8
0
100
AcDbLine
 10
0.0
 20
0.0
 30
0.0
 11
-1.0
 21
-0.1666666666666667
 31
0.0
  0
LINE
  5
56
330
53
100
AcDbEntity
  8
0
100
AcDbLine
 10
-1.0
 20
0.1666666666666667
 30
0.0
 11
-1.0
 21
-0.1666666666666667
 31
0.0
  0
LINE
  5
57
330
53
100
AcDbEntity
  8
0
100
AcDbLine
 10
0.0
 20
0.0
 30
0.0
 11
-1.0
 21
0.0
 31
0.0
  0
ENDBLK
  5
59
330
53
100
AcDbEntity
  8
0
100
AcDbBlockEnd
  0
BLOCK
  5
5E
330
5A
100
AcDbEntity
  8
0
100
AcDbBlockBegin
  2
_CLOSEDBLANK
 70
     0
 71
     0
 10
0.0
 20
0.0
 30
0.0
  3
_CLOSEDBLANK
  1

  0
LINE
  5
5B
330
5A
100
AcDbEntity
  8
0
100
AcDbLine
 10
-1.0
 20
0.1666666666666667
 30
0.0
 11
0.0
 21
0.0
 31
0.0
  0
LINE
  5
5C
330
5A
100
AcDbEntity
  8
0
100
AcDbLine
 10
0.0
 20
0.0
 30
0.0
 11
-1.0
 21
-0.1666666666666667
 31
0.0
  0
LINE
  5
5D
330
5A
100
AcDbEntity
  8
0
100
AcDbLine
 10
-1.0
 20
0.1666666666666667
 30
0.0
 11
-1.0
 21
-0.1666666666666667
 31
0.0
  0
ENDBLK
  5
5F
330
5A
100
AcDbEntity
  8
0
100
AcDbBlockEnd
  0
BLOCK
  5
66
330
60
100
AcDbEntity
  8
0
100
AcDbBlockBegin
  2
_BOXBLANK
 70
     0
 71
     0
 10
0.0
 20
0.0
 30
0.0
  3
_BOXBLANK
  1

  0
LINE
  5
61
330
60
100
AcDbEntity
  8
0
100
AcDbLine
 10
-0.5
 20
-0.5
 30
0.0
 11
0.5
 21
-0.5
 31
0.0
  0
LINE
  5
62
330
60
100
AcDbEntity
  8
0
100
AcDbLine
 10
0.5
 20
-0.5
 30
0.0
 11
0.5
 21
0.5
 31
0.0
  0
LINE
  5
63
330
60
100
AcDbEntity
  8
0
100
AcDbLine
 10
0.5
 20
0.5
 30
0.0
 11
-0.5
 21
0.5
 31
0.0
  0
LINE
  5
64
330
60
100
AcDbEntity
  8
0
100
AcDbLine
 10
-0.5
 20
0.5
 30
0.0
 11
-0.5
 21
-0.5
 31
0.0
  0
LINE
  5
65
330
60
100
AcDbEntity
  8
0
100
AcDbLine
 10
-0.5
 20
0.0
 30
0.0
 11
-1.0
 21
0.0
 31
0.0
  0
ENDBLK
  5
67
330
60
100
AcDbEntity
  8
0
100
AcDbBlockEnd
  0
BLOCK
  5
6B
330
68
100
AcDbEntity
  8
0
100
AcDbBlockBegin
  2
_BOXFILLED
 70
     0
 71
     0
 10
0.0
 20
0.0
 30
0.0
  3
_BOXFILLED
  1

  0
SOLID
  5
69
330
68
100
AcDbEntity
  8
0
100
AcDbTrace
 10
-0.5
 20
0.5
 30
0.0
 11
0.5
 21
0.5
 31
0.0
 12
-0.5
 22
-0.5
 32
0.0
 13
0.5
 23
-0.5
 33
0.0
  0
LINE
  5
6A
330
68
100
AcDbEntity
  8
0
100
AcDbLine
 10
-0.5
 20
0.0
 30
0.0
 11
-1.0
 21
0.0
 31
0.0
  0
ENDBLK
  5
6C
330
68
100
AcDbEntity
  8
0
100
AcDbBlockEnd
  0
BLOCK
  5
70
330
6D
100
AcDbEntity
  8
0
100
AcDbBlockBegin
  2
_INTEGRAL
 70
     0
 71
     0
 10
0.0
 20
0.0
 30
0.0
  3
_INTEGRAL
  1

  0
ARC
  5
6E
330
6D
100
AcDbEntity
  8
0
100
AcDbCircle
 10
0.444888
 20
-0.0913346
 30
0.0
 40
0.4541666
100
AcDbArc
 50
5844.169510334396
 51
9625.69095819783
  0
ARC
  5
6F
330
6D
100
AcDbEntity
  8
0
100
AcDbCircle
 10
-0.444888
 20
0.0913346
 30
0.0
 40
0.4541666
100
AcDbArc
 50
16157.40982268921
 51
19938.93127055265
  0
ENDBLK
  5
71
330
6D
100
AcDbEntity
  8
0
100
AcDbBlockEnd
  0
BLOCK
  5
74
330
72
100
AcDbEntity
  8
0
100
AcDbBlockBegin
  2
_OBLIQUE
 70
     0
 71
     0
 10
0.0
 20
0.0
 30
0.0
  3
_OBLIQUE
  1

  0
LINE
  5
73
330
72
100
AcDbEntity
  8
0
100
AcDbLine
 10
-0.5
 20
-0.5
 30
0.0
 11
0.5
 21
0.5
 31
0.0
  0
ENDBLK
  5
75
330
72
100
AcDbEntity
  8
0
100
AcDbBlockEnd
  0
BLOCK
  5
77
330
76
100
AcDbEntity
  8
0
100
AcDbBlockBegin
  2
_NONE
 70
     0
 71
     0
 10
0.0
 20
0.0
 30
0.0
  3
_NONE
  1

  0
ENDBLK
  5
78
330
76
100
AcDbEntity
  8
0
100
AcDbBlockEnd
  0
BLOCK
  5
A0
330
9F
100
AcDbEntity
  8
0
100
AcDbBlockBegin
  2
Dim1
 70
     0
 71
     0
 10
0.0
 20
0.0
 30
0.0
  3
Dim1
  1

  0
LINE
  5
A2
330
9F
100
AcDbEntity
  8
1
  6
Continuous
 62
     7
370
     9
100
AcDbLine
 10
7413.774066103118
 20
4766.217391304349
 30
0.0
 11
7413.774066103118
 21
3246.217391304349
 31
0.0
  0
LINE
  5
A3
330
9F
100
AcDbEntity
  8
1
  6
Continuous
 62
     7
370
     9
100
AcDbLine
 10
7453.774066103118
 20
4766.217391304349
 30
0.0
 11
7188.774066103118
 21
4766.217391304348
 31
0.0
  0
LINE
  5
A4
330
9F
100
AcDbEntity
  8
1
  6
Continuous
 62
     7
370
     9
100
AcDbLine
 10
7453.774066103118
 20
3246.217391304349
 30
0.0
 11
7188.774066103118
 21
3246.217391304348
 31
0.0
  0
LINE
  5
A5
330
9F
100
AcDbEntity
  8
1
  6
Continuous
 62
     7
370
     9
100
AcDbLine
 10
7413.774066103118
 20
4766.217391304349
 30
0.0
 11
7424.126827907219
 21
4727.580358252786
 31
0.0
  0
LINE
  5
A6
330
9F
100
AcDbEntity
  8
1
  6
Continuous
 62
     7
370
     9
100
AcDbLine
 10
7413.774066103118
 20
4766.217391304349
 30
0.0
 11
7403.421304299018
 21
4727.580358252786
 31
0.0
  0
LINE
  5
A7
330
9F
100
AcDbEntity
  8
1
  6
Continuous
 62
     7
370
     9
100
AcDbLine
 10
7424.126827907219
 20
4727.580358252786
 30
0.0
 11
7403.421304299018
 21
4727.580358252786
 31
0.0
  0
LINE
  5
A8
330
9F
100
AcDbEntity
  8
1
  6
Continuous
 62
     7
370
     9
100
AcDbLine
 10
7413.774066103118
 20
4756.558133041458
 30
0.0
 11
7418.950447005169
 21
4737.239616515677
 31
0.0
  0
LINE
  5
A9
330
9F
100
AcDbEntity
  8
1
  6
Continuous
 62
     7
370
     9
100
AcDbLine
 10
7413.774066103118
 20
4756.558133041458
 30
0.0
 11
7408.597685201068
 21
4737.239616515677
 31
0.0
  0
LINE
  5
AA
330
9F
100
AcDbEntity
  8
1
  6
Continuous
 62
     7
370
     9
100
AcDbLine
 10
7418.950447005169
 20
4737.239616515677
 30
0.0
 11
7408.597685201068
 21
4737.239616515677
 31
0.0
  0
LINE
  5
AB
330
9F
100
AcDbEntity
  8
1
  6
Continuous
 62
     7
370
     9
100
AcDbLine
 10
7413.774066103118
 20
3246.217391304349
 30
0.0
 11
7403.421304299018
 21
3284.854424355912
 31
0.0
  0
LINE
  5
AC
330
9F
100
AcDbEntity
  8
1
  6
Continuous
 62
     7
370
     9
100
AcDbLine
 10
7413.774066103118
 20
3246.217391304349
 30
0.0
 11
7424.126827907219
 21
3284.854424355912
 31
0.0
  0
LINE
  5
AD
330
9F
100
AcDbEntity
  8
1
  6
Continuous
 62
     7
370
     9
100
AcDbLine
 10
7403.421304299018
 20
3284.854424355912
 30
0.0
 11
7424.126827907219
 21
3284.854424355912
 31
0.0
  0
LINE
  5
AE
330
9F
100
AcDbEntity
  8
1
  6
Continuous
 62
     7
370
     9
100
AcDbLine
 10
7413.774066103118
 20
3255.876649567239
 30
0.0
 11
7408.597685201068
 21
3275.195166093021
 31
0.0
  0
LINE
  5
AF
330
9F
100
AcDbEntity
  8
1
  6
Continuous
 62
     7
370
     9
100
AcDbLine
 10
7413.774066103118
 20
3255.876649567239
 30
0.0
 11
7418.950447005169
 21
3275.195166093021
 31
0.0
  0
LINE
  5
B0
330
9F
100
AcDbEntity
  8
1
  6
Continuous
 62
     7
370
     9
100
AcDbLine
 10
7408.597685201068
 20
3275.195166093021
 30
0.0
 11
7418.950447005169
 21
3275.195166093021
 31
0.0
  0
TEXT
  5
B1
330
9F
100
AcDbEntity
  8
1
  6
Continuous
 62
     7
370
     9
100
AcDbText
 10
7413.774066103118
 20
3876.217391304349
 30
0.0
 40
100.0
  1
1520
 50
89.9999999999999
 41
0.7
100
AcDbText
  0
ENDBLK
  5
A1
330
9F
100
AcDbEntity
  8
0
100
AcDbBlockEnd
  0
BLOCK
  5
B4
330
B3
100
AcDbEntity
  8
0
100
AcDbBlockBegin
  2
Dim2
 70
     0
 71
     0
 10
0.0
 20
0.0
 30
0.0
  3
Dim2
  1

  0
LINE
  5
B6
330
B3
100
AcDbEntity
  8
1
  6
Continuous
 62
     7
370
     9
100
AcDbLine
 10
5857.27406610312
 20
3536.217391304349
 30
0.0
 11
5857.27406610312
 21
3765.178670275771
 31
0.0
  0
LINE
  5
B7
330
B3
100
AcDbEntity
  8
1
  6
Continuous
 62
     7
370
     9
100
AcDbLine
 10
5817.27406610312
 20
3576.217391304349
 30
0.0
 11
5917.27406610312
 21
3576.217391304348
 31
0.0
  0
LINE
  5
B8
330
B3
100
AcDbEntity
  8
1
  6
Continuous
 62
     7
370
     9
100
AcDbLine
 10
5817.27406610312
 20
3608.217391304349
 30
0.0
 11
5917.27406610312
 21
3608.217391304348
 31
0.0
  0
LINE
  5
B9
330
B3
100
AcDbEntity
  8
1
  6
Continuous
 62
     7
370
     9
100
AcDbLine
 10
5857.27406610312
 20
3576.217391304349
 30
0.0
 11
5867.626827907221
 21
3537.580358252786
 31
0.0
  0
LINE
  5
BA
330
B3
100
AcDbEntity
  8
1
  6
Continuous
 62
     7
370
     9
100
AcDbLine
 10
5857.27406610312
 20
3576.217391304349
 30
0.0
 11
5846.92130429902
 21
3537.580358252786
 31
0.0
  0
LINE
  5
BB
330
B3
100
AcDbEntity
  8
1
  6
Continuous
 62
     7
370
     9
100
AcDbLine
 10
5867.626827907221
 20
3537.580358252786
 30
0.0
 11
5846.92130429902
 21
3537.580358252786
 31
0.0
  0
LINE
  5
BC
330
B3
100
AcDbEntity
  8
1
  6
Continuous
 62
     7
370
     9
100
AcDbLine
 10
5857.27406610312
 20
3566.558133041458
 30
0.0
 11
5862.450447005171
 21
3547.239616515677
 31
0.0
  0
LINE
  5
BD
330
B3
100
AcDbEntity
  8
1
  6
Continuous
 62
     7
370
     9
100
AcDbLine
 10
5857.27406610312
 20
3566.558133041458
 30
0.0
 11
5852.09768520107
 21
3547.239616515677
 31
0.0
  0
LINE
  5
BE
330
B3
100
AcDbEntity
  8
1
  6
Continuous
 62
     7
370
     9
100
AcDbLine
 10
5862.450447005171
 20
3547.239616515677
 30
0.0
 11
5852.09768520107
 21
3547.239616515677
 31
0.0
  0
LINE
  5
BF
330
B3
100
AcDbEntity
  8
1
  6
Continuous
 62
     7
370
     9
100
AcDbLine
 10
5857.27406610312
 20
3608.217391304349
 30
0.0
 11
5846.92130429902
 21
3646.854424355912
 31
0.0
  0
LINE
  5
C0
330
B3
100
AcDbEntity
  8
1
  6
Continuous
 62
     7
370
     9
100
AcDbLine
 10
5857.27406610312
 20
3608.217391304349
 30
0.0
 11
5867.626827907221
 21
3646.854424355912
 31
0.0
  0
LINE
  5
C1
330
B3
100
AcDbEntity
  8
1
  6
Continuous
 62
     7
370
     9
100
AcDbLine
 10
5846.92130429902
 20
3646.854424355912
 30
0.0
 11
5867.626827907221
 21
3646.854424355912
 31
0.0
  0
LINE
  5
C2
330
B3
100
AcDbEntity
  8
1
  6
Continuous
 62
     7
370
     9
100
AcDbLine
 10
5857.27406610312
 20
3617.876649567239
 30
0.0
 11
5852.09768520107
 21
3637.195166093021
 31
0.0
  0
LINE
  5
C3
330
B3
100
AcDbEntity
  8
1
  6
Continuous
 62
     7
370
     9
100
AcDbLine
 10
5857.27406610312
 20
3617.876649567239
 30
0.0
 11
5862.450447005171
 21
3637.195166093021
 31
0.0
  0
LINE
  5
C4
330
B3
100
AcDbEntity
  8
1
  6
Continuous
 62
     7
370
     9
100
AcDbLine
 10
5852.09768520107
 20
3637.195166093021
 30
0.0
 11
5862.450447005171
 21
3637.195166093021
 31
0.0
  0
TEXT
  5
C5
330
B3
100
AcDbEntity
  8
1
  6
Continuous
 62
     7
370
     9
100
AcDbText
 10
5857.27406610312
 20
3615.17867027577
 30
0.0
 40
100.0
  1
32
 50
89.99999999999991
 41
0.7
100
AcDbText
  0
ENDBLK
  5
B5
330
B3
100
AcDbEntity
  8
0
100
AcDbBlockEnd
  0
BLOCK
  5
C8
330
C7
100
AcDbEntity
  8
0
100
AcDbBlockBegin
  2
*G14
 70
     1
 71
     0
 10
0.0
 20
0.0
 30
0.0
  3
*G14
  1

  0
LINE
  5
CA
330
C7
100
AcDbEntity
  8
1
  6
Continuous
 62
     7
370
    30
100
AcDbLine
 10
6025.27406610312
 20
3836.217391304348
 30
0.0
 11
6025.27406610312
 21
3608.217391304348
 31
0.0
  0
LINE
  5
CB
330
C7
100
AcDbEntity
  8
1
  6
Continuous
 62
     7
370
    30
100
AcDbLine
 10
6025.27406610312
 20
3608.217391304348
 30
0.0
 11
6037.27406610312
 21
3608.217391304348
 31
0.0
  0
LINE
  5
CC
330
C7
100
AcDbEntity
  8
1
  6
Continuous
 62
     7
370
    30
100
AcDbLine
 10
6037.27406610312
 20
3608.217391304348
 30
0.0
 11
6037.27406610312
 21
3836.217391304348
 31
0.0
  0
LINE
  5
CD
330
C7
100
AcDbEntity
  8
1
  6
Continuous
 62
     7
370
    30
100
AcDbLine
 10
6037.27406610312
 20
3836.217391304348
 30
0.0
 11
6025.27406610312
 21
3836.217391304348
 31
0.0
  0
ENDBLK
  5
C9
330
C7
100
AcDbEntity
  8
0
100
AcDbBlockEnd
  0
BLOCK
  5
D1
330
D0
100
AcDbEntity
  8
0
100
AcDbBlockBegin
  2
*G15
 70
     1
 71
     0
 10
0.0
 20
0.0
 30
0.0
  3
*G15
  1

  0
LINE
  5
D3
330
D0
100
AcDbEntity
  8
1
  6
Continuous
 62
     7
370
    30
100
AcDbLine
 10
5957.27406610312
 20
3608.217391304348
 30
0.0
 11
5957.27406610312
 21
3576.217391304348
 31
0.0
  0
LINE
  5
D4
330
D0
100
AcDbEntity
  8
1
  6
Continuous
 62
     7
370
    30
100
AcDbLine
 10
5957.27406610312
 20
3576.217391304348
 30
0.0
 11
6207.27406610312
 21
3576.217391304348
 31
0.0
  0
LINE
  5
D5
330
D0
100
AcDbEntity
  8
1
  6
Continuous
 62
     7
370
    30
100
AcDbLine
 10
6207.27406610312
 20
3576.217391304348
 30
0.0
 11
6207.27406610312
 21
3608.217391304348
 31
0.0
  0
LINE
  5
D6
330
D0
100
AcDbEntity
  8
1
  6
Continuous
 62
     7
370
    30
100
AcDbLine
 10
6207.27406610312
 20
3608.217391304348
 30
0.0
 11
5957.27406610312
 21
3608.217391304348
 31
0.0
  0
ENDBLK
  5
D2
330
D0
100
AcDbEntity
  8
0
100
AcDbBlockEnd
  0
BLOCK
  5
D9
330
D8
100
AcDbEntity
  8
0
100
AcDbBlockBegin
  2
*G16
 70
     1
 71
     0
 10
0.0
 20
0.0
 30
0.0
  3
*G16
  1

  0
LINE
  5
DB
330
D8
100
AcDbEntity
  8
1
  6
Continuous
 62
     7
370
    30
100
AcDbLine
 10
6175.27406610312
 20
3836.217391304348
 30
0.0
 11
6175.27406610312
 21
3608.217391304348
 31
0.0
  0
LINE
  5
DC
330
D8
100
AcDbEntity
  8
1
  6
Continuous
 62
     7
370
    30
100
AcDbLine
 10
6175.27406610312
 20
3608.217391304348
 30
0.0
 11
6187.27406610312
 21
3608.217391304348
 31
0.0
  0
LINE
  5
DD
330
D8
100
AcDbEntity
  8
1
  6
Continuous
 62
     7
370
    30
100
AcDbLine
 10
6187.27406610312
 20
3608.217391304348
 30
0.0
 11
6187.27406610312
 21
3836.217391304348
 31
0.0
  0
LINE
  5
DE
330
D8
100
AcDbEntity
  8
1
  6
Continuous
 62
     7
370
    30
100
AcDbLine
 10
6187.27406610312
 20
3836.217391304348
 30
0.0
 11
6175.27406610312
 21
3836.217391304348
 31
0.0
  0
ENDBLK
  5
DA
330
D8
100
AcDbEntity
  8
0
100
AcDbBlockEnd
  0
BLOCK
  5
E1
330
E0
100
AcDbEntity
  8
0
100
AcDbBlockBegin
  2
*G17
 70
     1
 71
     0
 10
0.0
 20
0.0
 30
0.0
  3
*G17
  1

  0
LINE
  5
E3
330
E0
100
AcDbEntity
  8
1
  6
Continuous
 62
     7
370
    30
100
AcDbLine
 10
6025.27406610312
 20
4404.217391304348
 30
0.0
 11
6025.27406610312
 21
4176.217391304349
 31
0.0
  0
LINE
  5
E4
330
E0
100
AcDbEntity
  8
1
  6
Continuous
 62
     7
370
    30
100
AcDbLine
 10
6025.27406610312
 20
4176.217391304349
 30
0.0
 11
6037.27406610312
 21
4176.217391304349
 31
0.0
  0
LINE
  5
E5
330
E0
100
AcDbEntity
  8
1
  6
Continuous
 62
     7
370
    30
100
AcDbLine
 10
6037.27406610312
 20
4176.217391304349
 30
0.0
 11
6037.27406610312
 21
4404.217391304348
 31
0.0
  0
LINE
  5
E6
330
E0
100
AcDbEntity
  8
1
  6
Continuous
 62
     7
370
    30
100
AcDbLine
 10
6037.27406610312
 20
4404.217391304348
 30
0.0
 11
6025.27406610312
 21
4404.217391304348
 31
0.0
  0
ENDBLK
  5
E2
330
E0
100
AcDbEntity
  8
0
100
AcDbBlockEnd
  0
BLOCK
  5
E9
330
E8
100
AcDbEntity
  8
0
100
AcDbBlockBegin
  2
*G18
 70
     1
 71
     0
 10
0.0
 20
0.0
 30
0.0
  3
*G18
  1

  0
LINE
  5
EB
330
E8
100
AcDbEntity
  8
1
  6
Continuous
 62
     7
370
    30
100
AcDbLine
 10
6175.27406610312
 20
4404.217391304348
 30
0.0
 11
6175.27406610312
 21
4176.217391304349
 31
0.0
  0
LINE
  5
EC
330
E8
100
AcDbEntity
  8
1
  6
Continuous
 62
     7
370
    30
100
AcDbLine
 10
6175.27406610312
 20
4176.217391304349
 30
0.0
 11
6187.27406610312
 21
4176.217391304349
 31
0.0
  0
LINE
  5
ED
330
E8
100
AcDbEntity
  8
1
  6
Continuous
 62
     7
370
    30
100
AcDbLine
 10
6187.27406610312
 20
4176.217391304349
 30
0.0
 11
6187.27406610312
 21
4404.217391304348
 31
0.0
  0
LINE
  5
EE
330
E8
100
AcDbEntity
  8
1
  6
Continuous
 62
     7
370
    30
100
AcDbLine
 10
6187.27406610312
 20
4404.217391304348
 30
0.0
 11
6175.27406610312
 21
4404.217391304348
 31
0.0
  0
ENDBLK
  5
EA
330
E8
100
AcDbEntity
  8
0
100
AcDbBlockEnd
  0
BLOCK
  5
F2
330
F1
100
AcDbEntity
  8
0
100
AcDbBlockBegin
  2
*G19
 70
     1
 71
     0
 10
0.0
 20
0.0
 30
0.0
  3
*G19
  1

  0
LINE
  5
F4
330
F1
100
AcDbEntity
  8
1
  6
Continuous
 62
     7
370
    30
100
AcDbLine
 10
5957.27406610312
 20
4436.217391304349
 30
0.0
 11
5957.27406610312
 21
4404.217391304348
 31
0.0
  0
LINE
  5
F5
330
F1
100
AcDbEntity
  8
1
  6
Continuous
 62
     7
370
    30
100
AcDbLine
 10
5957.27406610312
 20
4404.217391304348
 30
0.0
 11
6207.27406610312
 21
4404.217391304348
 31
0.0
  0
LINE
  5
F6
330
F1
100
AcDbEntity
  8
1
  6
Continuous
 62
     7
370
    30
100
AcDbLine
 10
6207.27406610312
 20
4404.217391304348
 30
0.0
 11
6207.27406610312
 21
4436.217391304349
 31
0.0
  0
LINE
  5
F7
330
F1
100
AcDbEntity
  8
1
  6
Continuous
 62
     7
370
    30
100
AcDbLine
 10
6207.27406610312
 20
4436.217391304349
 30
0.0
 11
5957.27406610312
 21
4436.217391304349
 31
0.0
  0
ENDBLK
  5
F3
330
F1
100
AcDbEntity
  8
0
100
AcDbBlockEnd
  0
BLOCK
  5
FA
330
F9
100
AcDbEntity
  8
0
100
AcDbBlockBegin
  2
Dim3
 70
     0
 71
     0
 10
0.0
 20
0.0
 30
0.0
  3
Dim3
  1

  0
LINE
  5
FC
330
F9
100
AcDbEntity
  8
1
  6
Continuous
 62
     7
370
     9
100
AcDbLine
 10
4062.274066103118
 20
3536.217391304348
 30
0.0
 11
4062.274066103119
 21
3769.772602862655
 31
0.0
  0
LINE
  5
FD
330
F9
100
AcDbEntity
  8
1
  6
Continuous
 62
     7
370
     9
100
AcDbLine
 10
4102.274066103118
 20
3576.217391304348
 30
0.0
 11
4002.274066103118
 21
3576.217391304348
 31
0.0
  0
LINE
  5
FE
330
F9
100
AcDbEntity
  8
1
  6
Continuous
 62
     7
370
     9
100
AcDbLine
 10
4102.274066103118
 20
3608.217391304348
 30
0.0
 11
4002.274066103118
 21
3608.217391304348
 31
0.0
  0
LINE
  5
FF
330
F9
100
AcDbEntity
  8
1
  6
Continuous
 62
     7
370
     9
100
AcDbLine
 10
4062.274066103118
 20
3576.217391304348
 30
0.0
 11
4072.626827907219
 21
3537.580358252785
 31
0.0
  0
LINE
  5
100
330
F9
100
AcDbEntity
  8
1
  6
Continuous
 62
     7
370
     9
100
AcDbLine
 10
4062.274066103118
 20
3576.217391304348
 30
0.0
 11
4051.921304299017
 21
3537.580358252785
 31
0.0
  0
LINE
  5
101
330
F9
100
AcDbEntity
  8
1
  6
Continuous
 62
     7
370
     9
100
AcDbLine
 10
4072.626827907219
 20
3537.580358252785
 30
0.0
 11
4051.921304299017
 21
3537.580358252785
 31
0.0
  0
LINE
  5
102
330
F9
100
AcDbEntity
  8
1
  6
Continuous
 62
     7
370
     9
100
AcDbLine
 10
4062.274066103118
 20
3566.558133041457
 30
0.0
 11
4067.450447005169
 21
3547.239616515676
 31
0.0
  0
LINE
  5
103
330
F9
100
AcDbEntity
  8
1
  6
Continuous
 62
     7
370
     9
100
AcDbLine
 10
4062.274066103118
 20
3566.558133041457
 30
0.0
 11
4057.097685201068
 21
3547.239616515676
 31
0.0
  0
LINE
  5
104
330
F9
100
AcDbEntity
  8
1
  6
Continuous
 62
     7
370
     9
100
AcDbLine
 10
4067.450447005169
 20
3547.239616515676
 30
0.0
 11
4057.097685201068
 21
3547.239616515676
 31
0.0
  0
LINE
  5
105
330
F9
100
AcDbEntity
  8
1
  6
Continuous
 62
     7
370
     9
100
AcDbLine
 10
4062.274066103118
 20
3608.217391304348
 30
0.0
 11
4051.921304299018
 21
3646.854424355911
 31
0.0
  0
LINE
  5
106
330
F9
100
AcDbEntity
  8
1
  6
Continuous
 62
     7
370
     9
100
AcDbLine
 10
4062.274066103118
 20
3608.217391304348
 30
0.0
 11
4072.626827907219
 21
3646.854424355911
 31
0.0
  0
LINE
  5
107
330
F9
100
AcDbEntity
  8
1
  6
Continuous
 62
     7
370
     9
100
AcDbLine
 10
4051.921304299018
 20
3646.854424355911
 30
0.0
 11
4072.626827907219
 21
3646.854424355911
 31
0.0
  0
LINE
  5
108
330
F9
100
AcDbEntity
  8
1
  6
Continuous
 62
     7
370
     9
100
AcDbLine
 10
4062.274066103118
 20
3617.876649567238
 30
0.0
 11
4057.097685201068
 21
3637.19516609302
 31
0.0
  0
LINE
  5
109
330
F9
100
AcDbEntity
  8
1
  6
Continuous
 62
     7
370
     9
100
AcDbLine
 10
4062.274066103118
 20
3617.876649567238
 30
0.0
 11
4067.450447005169
 21
3637.19516609302
 31
0.0
  0
LINE
  5
10A
330
F9
100
AcDbEntity
  8
1
  6
Continuous
 62
     7
370
     9
100
AcDbLine
 10
4057.097685201068
 20
3637.19516609302
 30
0.0
 11
4067.450447005169
 21
3637.19516609302
 31
0.0
  0
TEXT
  5
10B
330
F9
100
AcDbEntity
  8
1
  6
Continuous
 62
     7
370
     9
100
AcDbText
 10
4062.274066103118
 20
3619.772602862655
 30
0.0
 40
100.0
  1
32
 50
89.99999999999991
 41
0.7
100
AcDbText
  0
ENDBLK
  5
FB
330
F9
100
AcDbEntity
  8
0
100
AcDbBlockEnd
  0
BLOCK
  5
10E
330
10D
100
AcDbEntity
  8
0
100
AcDbBlockBegin
  2
Dim4
 70
     0
 71
     0
 10
0.0
 20
0.0
 30
0.0
  3
Dim4
  1

  0
LINE
  5
110
330
10D
100
AcDbEntity
  8
1
  6
Continuous
 62
     7
370
     9
100
AcDbLine
 10
2062.274066103118
 20
3126.217391304348
 30
0.0
 11
2062.274066103119
 21
3350.066816064506
 31
0.0
  0
LINE
  5
111
330
10D
100
AcDbEntity
  8
1
  6
Continuous
 62
     7
370
     9
100
AcDbLine
 10
2102.274066103118
 20
3166.217391304348
 30
0.0
 11
2002.274066103118
 21
3166.217391304348
 31
0.0
  0
LINE
  5
112
330
10D
100
AcDbEntity
  8
1
  6
Continuous
 62
     7
370
     9
100
AcDbLine
 10
2102.274066103118
 20
3198.217391304348
 30
0.0
 11
2002.274066103118
 21
3198.217391304348
 31
0.0
  0
LINE
  5
113
330
10D
100
AcDbEntity
  8
1
  6
Continuous
 62
     7
370
     9
100
AcDbLine
 10
2062.274066103118
 20
3166.217391304348
 30
0.0
 11
2072.626827907219
 21
3127.580358252785
 31
0.0
  0
LINE
  5
114
330
10D
100
AcDbEntity
  8
1
  6
Continuous
 62
     7
370
     9
100
AcDbLine
 10
2062.274066103118
 20
3166.217391304348
 30
0.0
 11
2051.921304299017
 21
3127.580358252785
 31
0.0
  0
LINE
  5
115
330
10D
100
AcDbEntity
  8
1
  6
Continuous
 62
     7
370
     9
100
AcDbLine
 10
2072.626827907219
 20
3127.580358252785
 30
0.0
 11
2051.921304299017
 21
3127.580358252785
 31
0.0
  0
LINE
  5
116
330
10D
100
AcDbEntity
  8
1
  6
Continuous
 62
     7
370
     9
100
AcDbLine
 10
2062.274066103118
 20
3156.558133041457
 30
0.0
 11
2067.450447005169
 21
3137.239616515676
 31
0.0
  0
LINE
  5
117
330
10D
100
AcDbEntity
  8
1
  6
Continuous
 62
     7
370
     9
100
AcDbLine
 10
2062.274066103118
 20
3156.558133041457
 30
0.0
 11
2057.097685201068
 21
3137.239616515676
 31
0.0
  0
LINE
  5
118
330
10D
100
AcDbEntity
  8
1
  6
Continuous
 62
     7
370
     9
100
AcDbLine
 10
2067.450447005169
 20
3137.239616515676
 30
0.0
 11
2057.097685201068
 21
3137.239616515676
 31
0.0
  0
LINE
  5
119
330
10D
100
AcDbEntity
  8
1
  6
Continuous
 62
     7
370
     9
100
AcDbLine
 10
2062.274066103118
 20
3198.217391304348
 30
0.0
 11
2051.921304299018
 21
3236.854424355911
 31
0.0
  0
LINE
  5
11A
330
10D
100
AcDbEntity
  8
1
  6
Continuous
 62
     7
370
     9
100
AcDbLine
 10
2062.274066103118
 20
3198.217391304348
 30
0.0
 11
2072.626827907219
 21
3236.854424355911
 31
0.0
  0
LINE
  5
11B
330
10D
100
AcDbEntity
  8
1
  6
Continuous
 62
     7
370
     9
100
AcDbLine
 10
2051.921304299018
 20
3236.854424355911
 30
0.0
 11
2072.626827907219
 21
3236.854424355911
 31
0.0
  0
LINE
  5
11C
330
10D
100
AcDbEntity
  8
1
  6
Continuous
 62
     7
370
     9
100
AcDbLine
 10
2062.274066103118
 20
3207.876649567238
 30
0.0
 11
2057.097685201068
 21
3227.19516609302
 31
0.0
  0
LINE
  5
11D
330
10D
100
AcDbEntity
  8
1
  6
Continuous
 62
     7
370
     9
100
AcDbLine
 10
2062.274066103118
 20
3207.876649567238
 30
0.0
 11
2067.450447005169
 21
3227.19516609302
 31
0.0
  0
LINE
  5
11E
330
10D
100
AcDbEntity
  8
1
  6
Continuous
 62
     7
370
     9
100
AcDbLine
 10
2057.097685201068
 20
3227.19516609302
 30
0.0
 11
2067.450447005169
 21
3227.19516609302
 31
0.0
  0
TEXT
  5
11F
330
10D
100
AcDbEntity
  8
1
  6
Continuous
 62
     7
370
     9
100
AcDbText
 10
2062.274066103118
 20
3200.066816064506
 30
0.0
 40
100.0
  1
32
 50
89.99999999999991
 41
0.7
100
AcDbText
  0
ENDBLK
  5
10F
330
10D
100
AcDbEntity
  8
0
100
AcDbBlockEnd
  0
BLOCK
  5
122
330
121
100
AcDbEntity
  8
0
100
AcDbBlockBegin
  2
Dim5
 70
     0
 71
     0
 10
0.0
 20
0.0
 30
0.0
  3
Dim5
  1

  0
LINE
  5
124
330
121
100
AcDbEntity
  8
1
  6
Continuous
 62
     7
370
     9
100
AcDbLine
 10
1262.274066103118
 20
3156.217391304349
 30
0.0
 11
1262.274066103118
 21
4856.217391304349
 31
0.0
  0
LINE
  5
125
330
121
100
AcDbEntity
  8
1
  6
Continuous
 62
     7
370
     9
100
AcDbLine
 10
1222.274066103118
 20
3156.217391304349
 30
0.0
 11
1572.274066103118
 21
3156.217391304348
 31
0.0
  0
LINE
  5
126
330
121
100
AcDbEntity
  8
1
  6
Continuous
 62
     7
370
     9
100
AcDbLine
 10
1222.274066103118
 20
4856.217391304349
 30
0.0
 11
1572.274066103118
 21
4856.217391304348
 31
0.0
  0
LINE
  5
127
330
121
100
AcDbEntity
  8
1
  6
Continuous
 62
     7
370
     9
100
AcDbLine
 10
1262.274066103118
 20
3156.217391304349
 30
0.0
 11
1251.921304299018
 21
3194.854424355912
 31
0.0
  0
LINE
  5
128
330
121
100
AcDbEntity
  8
1
  6
Continuous
 62
     7
370
     9
100
AcDbLine
 10
1262.274066103118
 20
3156.217391304349
 30
0.0
 11
1272.626827907219
 21
3194.854424355912
 31
0.0
  0
LINE
  5
129
330
121
100
AcDbEntity
  8
1
  6
Continuous
 62
     7
370
     9
100
AcDbLine
 10
1251.921304299018
 20
3194.854424355912
 30
0.0
 11
1272.626827907219
 21
3194.854424355912
 31
0.0
  0
LINE
  5
12A
330
121
100
AcDbEntity
  8
1
  6
Continuous
 62
     7
370
     9
100
AcDbLine
 10
1262.274066103118
 20
3165.876649567239
 30
0.0
 11
1257.097685201068
 21
3185.195166093021
 31
0.0
  0
LINE
  5
12B
330
121
100
AcDbEntity
  8
1
  6
Continuous
 62
     7
370
     9
100
AcDbLine
 10
1262.274066103118
 20
3165.876649567239
 30
0.0
 11
1267.450447005169
 21
3185.195166093021
 31
0.0
  0
LINE
  5
12C
330
121
100
AcDbEntity
  8
1
  6
Continuous
 62
     7
370
     9
100
AcDbLine
 10
1257.097685201068
 20
3185.195166093021
 30
0.0
 11
1267.450447005169
 21
3185.195166093021
 31
0.0
  0
LINE
  5
12D
330
121
100
AcDbEntity
  8
1
  6
Continuous
 62
     7
370
     9
100
AcDbLine
 10
1262.274066103118
 20
4856.217391304349
 30
0.0
 11
1272.626827907219
 21
4817.580358252786
 31
0.0
  0
LINE
  5
12E
330
121
100
AcDbEntity
  8
1
  6
Continuous
 62
     7
370
     9
100
AcDbLine
 10
1262.274066103118
 20
4856.217391304349
 30
0.0
 11
1251.921304299017
 21
4817.580358252786
 31
0.0
  0
LINE
  5
12F
330
121
100
AcDbEntity
  8
1
  6
Continuous
 62
     7
370
     9
100
AcDbLine
 10
1272.626827907219
 20
4817.580358252786
 30
0.0
 11
1251.921304299017
 21
4817.580358252786
 31
0.0
  0
LINE
  5
130
330
121
100
AcDbEntity
  8
1
  6
Continuous
 62
     7
370
     9
100
AcDbLine
 10
1262.274066103118
 20
4846.558133041458
 30
0.0
 11
1267.450447005169
 21
4827.239616515677
 31
0.0
  0
LINE
  5
131
330
121
100
AcDbEntity
  8
1
  6
Continuous
 62
     7
370
     9
100
AcDbLine
 10
1262.274066103118
 20
4846.558133041458
 30
0.0
 11
1257.097685201068
 21
4827.239616515677
 31
0.0
  0
LINE
  5
132
330
121
100
AcDbEntity
  8
1
  6
Continuous
 62
     7
370
     9
100
AcDbLine
 10
1267.450447005169
 20
4827.239616515677
 30
0.0
 11
1257.097685201068
 21
4827.239616515677
 31
0.0
  0
TEXT
  5
133
330
121
100
AcDbEntity
  8
1
  6
Continuous
 62
     7
370
     9
100
AcDbText
 10
1262.274066103118
 20
3876.217391304349
 30
0.0
 40
100.0
  1
1700
 50
89.99999999999991
 41
0.7
100
AcDbText
  0
ENDBLK
  5
123
330
121
100
AcDbEntity
  8
0
100
AcDbBlockEnd
  0
BLOCK
  5
136
330
135
100
AcDbEntity
  8
0
100
AcDbBlockBegin
  2
Dim6
 70
     0
 71
     0
 10
0.0
 20
0.0
 30
0.0
  3
Dim6
  1

  0
LINE
  5
138
330
135
100
AcDbEntity
  8
1
  6
Continuous
 62
     7
370
     9
100
AcDbLine
 10
1362.274066103118
 20
4846.217391304348
 30
0.0
 11
1362.274066103118
 21
3166.217391304348
 31
0.0
  0
LINE
  5
139
330
135
100
AcDbEntity
  8
1
  6
Continuous
 62
     7
370
     9
100
AcDbLine
 10
1322.274066103118
 20
4846.217391304348
 30
0.0
 11
1522.274066103118
 21
4846.217391304348
 31
0.0
  0
LINE
  5
13A
330
135
100
AcDbEntity
  8
1
  6
Continuous
 62
     7
370
     9
100
AcDbLine
 10
1322.274066103118
 20
3166.217391304348
 30
0.0
 11
1522.274066103118
 21
3166.217391304348
 31
0.0
  0
LINE
  5
13B
330
135
100
AcDbEntity
  8
1
  6
Continuous
 62
     7
370
     9
100
AcDbLine
 10
1362.274066103118
 20
4846.217391304348
 30
0.0
 11
1372.626827907219
 21
4807.580358252785
 31
0.0
  0
LINE
  5
13C
330
135
100
AcDbEntity
  8
1
  6
Continuous
 62
     7
370
     9
100
AcDbLine
 10
1362.274066103118
 20
4846.217391304348
 30
0.0
 11
1351.921304299018
 21
4807.580358252785
 31
0.0
  0
LINE
  5
13D
330
135
100
AcDbEntity
  8
1
  6
Continuous
 62
     7
370
     9
100
AcDbLine
 10
1372.626827907219
 20
4807.580358252785
 30
0.0
 11
1351.921304299018
 21
4807.580358252785
 31
0.0
  0
LINE
  5
13E
330
135
100
AcDbEntity
  8
1
  6
Continuous
 62
     7
370
     9
100
AcDbLine
 10
1362.274066103118
 20
4836.558133041457
 30
0.0
 11
1367.450447005169
 21
4817.239616515676
 31
0.0
  0
LINE
  5
13F
330
135
100
AcDbEntity
  8
1
  6
Continuous
 62
     7
370
     9
100
AcDbLine
 10
1362.274066103118
 20
4836.558133041457
 30
0.0
 11
1357.097685201068
 21
4817.239616515676
 31
0.0
  0
LINE
  5
140
330
135
100
AcDbEntity
  8
1
  6
Continuous
 62
     7
370
     9
100
AcDbLine
 10
1367.450447005169
 20
4817.239616515676
 30
0.0
 11
1357.097685201068
 21
4817.239616515676
 31
0.0
  0
LINE
  5
141
330
135
100
AcDbEntity
  8
1
  6
Continuous
 62
     7
370
     9
100
AcDbLine
 10
1362.274066103118
 20
3166.217391304348
 30
0.0
 11
1351.921304299018
 21
3204.854424355911
 31
0.0
  0
LINE
  5
142
330
135
100
AcDbEntity
  8
1
  6
Continuous
 62
     7
370
     9
100
AcDbLine
 10
1362.274066103118
 20
3166.217391304348
 30
0.0
 11
1372.626827907219
 21
3204.854424355911
 31
0.0
  0
LINE
  5
143
330
135
100
AcDbEntity
  8
1
  6
Continuous
 62
     7
370
     9
100
AcDbLine
 10
1351.921304299018
 20
3204.854424355911
 30
0.0
 11
1372.626827907219
 21
3204.854424355911
 31
0.0
  0
LINE
  5
144
330
135
100
AcDbEntity
  8
1
  6
Continuous
 62
     7
370
     9
100
AcDbLine
 10
1362.274066103118
 20
3175.876649567238
 30
0.0
 11
1357.097685201068
 21
3195.19516609302
 31
0.0
  0
LINE
  5
145
330
135
100
AcDbEntity
  8
1
  6
Continuous
 62
     7
370
     9
100
AcDbLine
 10
1362.274066103118
 20
3175.876649567238
 30
0.0
 11
1367.450447005169
 21
3195.19516609302
 31
0.0
  0
LINE
  5
146
330
135
100
AcDbEntity
  8
1
  6
Continuous
 62
     7
370
     9
100
AcDbLine
 10
1357.097685201068
 20
3195.19516609302
 30
0.0
 11
1367.450447005169
 21
3195.19516609302
 31
0.0
  0
TEXT
  5
147
330
135
100
AcDbEntity
  8
1
  6
Continuous
 62
     7
370
     9
100
AcDbText
 10
1362.274066103118
 20
3876.217391304348
 30
0.0
 40
100.0
  1
1680
 50
89.9999999999999
 41
0.7
100
AcDbText
  0
ENDBLK
  5
137
330
135
100
AcDbEntity
  8
0
100
AcDbBlockEnd
  0
BLOCK
  5
14A
330
149
100
AcDbEntity
  8
0
100
AcDbBlockBegin
  2
Dim7
 70
     0
 71
     0
 10
0.0
 20
0.0
 30
0.0
  3
Dim7
  1

  0
LINE
  5
14C
330
149
100
AcDbEntity
  8
1
  6
Continuous
 62
     7
370
     9
100
AcDbLine
 10
1462.274066103119
 20
4830.217391304348
 30
0.0
 11
1462.274066103119
 21
4587.217391304348
 31
0.0
  0
LINE
  5
14D
330
149
100
AcDbEntity
  8
1
  6
Continuous
 62
     7
370
     9
100
AcDbLine
 10
1422.274066103119
 20
4830.217391304348
 30
0.0
 11
1522.274066103118
 21
4830.217391304348
 31
0.0
  0
LINE
  5
14E
330
149
100
AcDbEntity
  8
1
  6
Continuous
 62
     7
370
     9
100
AcDbLine
 10
1422.274066103119
 20
4587.217391304348
 30
0.0
 11
1522.274066103118
 21
4587.217391304348
 31
0.0
  0
LINE
  5
14F
330
149
100
AcDbEntity
  8
1
  6
Continuous
 62
     7
370
     9
100
AcDbLine
 10
1462.274066103119
 20
4830.217391304348
 30
0.0
 11
1472.62682790722
 21
4791.580358252785
 31
0.0
  0
LINE
  5
150
330
149
100
AcDbEntity
  8
1
  6
Continuous
 62
     7
370
     9
100
AcDbLine
 10
1462.274066103119
 20
4830.217391304348
 30
0.0
 11
1451.921304299018
 21
4791.580358252785
 31
0.0
  0
LINE
  5
151
330
149
100
AcDbEntity
  8
1
  6
Continuous
 62
     7
370
     9
100
AcDbLine
 10
1472.62682790722
 20
4791.580358252785
 30
0.0
 11
1451.921304299018
 21
4791.580358252785
 31
0.0
  0
LINE
  5
152
330
149
100
AcDbEntity
  8
1
  6
Continuous
 62
     7
370
     9
100
AcDbLine
 10
1462.274066103119
 20
4820.558133041457
 30
0.0
 11
1467.450447005169
 21
4801.239616515676
 31
0.0
  0
LINE
  5
153
330
149
100
AcDbEntity
  8
1
  6
Continuous
 62
     7
370
     9
100
AcDbLine
 10
1462.274066103119
 20
4820.558133041457
 30
0.0
 11
1457.097685201068
 21
4801.239616515676
 31
0.0
  0
LINE
  5
154
330
149
100
AcDbEntity
  8
1
  6
Continuous
 62
     7
370
     9
100
AcDbLine
 10
1467.450447005169
 20
4801.239616515676
 30
0.0
 11
1457.097685201068
 21
4801.239616515676
 31
0.0
  0
LINE
  5
155
330
149
100
AcDbEntity
  8
1
  6
Continuous
 62
     7
370
     9
100
AcDbLine
 10
1462.274066103119
 20
4587.217391304348
 30
0.0
 11
1451.921304299018
 21
4625.854424355911
 31
0.0
  0
LINE
  5
156
330
149
100
AcDbEntity
  8
1
  6
Continuous
 62
     7
370
     9
100
AcDbLine
 10
1462.274066103119
 20
4587.217391304348
 30
0.0
 11
1472.62682790722
 21
4625.854424355911
 31
0.0
  0
LINE
  5
157
330
149
100
AcDbEntity
  8
1
  6
Continuous
 62
     7
370
     9
100
AcDbLine
 10
1451.921304299018
 20
4625.854424355911
 30
0.0
 11
1472.62682790722
 21
4625.854424355911
 31
0.0
  0
LINE
  5
158
330
149
100
AcDbEntity
  8
1
  6
Continuous
 62
     7
370
     9
100
AcDbLine
 10
1462.274066103119
 20
4596.876649567239
 30
0.0
 11
1457.097685201068
 21
4616.19516609302
 31
0.0
  0
LINE
  5
159
330
149
100
AcDbEntity
  8
1
  6
Continuous
 62
     7
370
     9
100
AcDbLine
 10
1462.274066103119
 20
4596.876649567239
 30
0.0
 11
1467.450447005169
 21
4616.19516609302
 31
0.0
  0
LINE
  5
15A
330
149
100
AcDbEntity
  8
1
  6
Continuous
 62
     7
370
     9
100
AcDbLine
 10
1457.097685201068
 20
4616.19516609302
 30
0.0
 11
1467.450447005169
 21
4616.19516609302
 31
0.0
  0
TEXT
  5
15B
330
149
100
AcDbEntity
  8
1
  6
Continuous
 62
     7
370
     9
100
AcDbText
 10
1462.274066103118
 20
4613.717391304348
 30
0.0
 40
100.0
  1
243
 50
89.9999999999999
 41
0.7
100
AcDbText
  0
ENDBLK
  5
14B
330
149
100
AcDbEntity
  8
0
100
AcDbBlockEnd
  0
BLOCK
  5
15E
330
15D
100
AcDbEntity
  8
0
100
AcDbBlockBegin
  2
Dim8
 70
     0
 71
     0
 10
0.0
 20
0.0
 30
0.0
  3
Dim8
  1

  0
LINE
  5
160
330
15D
100
AcDbEntity
  8
1
  6
Continuous
 62
     7
370
     9
100
AcDbLine
 10
1462.274066103118
 20
4587.217391304349
 30
0.0
 11
1462.274066103118
 21
4344.217391304349
 31
0.0
  0
LINE
  5
161
330
15D
100
AcDbEntity
  8
1
  6
Continuous
 62
     7
370
     9
100
AcDbLine
 10
1422.274066103118
 20
4587.217391304349
 30
0.0
 11
1522.274066103118
 21
4587.217391304348
 31
0.0
  0
LINE
  5
162
330
15D
100
AcDbEntity
  8
1
  6
Continuous
 62
     7
370
     9
100
AcDbLine
 10
1422.274066103118
 20
4344.217391304349
 30
0.0
 11
1522.274066103118
 21
4344.217391304348
 31
0.0
  0
LINE
  5
163
330
15D
100
AcDbEntity
  8
1
  6
Continuous
 62
     7
370
     9
100
AcDbLine
 10
1462.274066103118
 20
4587.217391304349
 30
0.0
 11
1472.626827907219
 21
4548.580358252786
 31
0.0
  0
LINE
  5
164
330
15D
100
AcDbEntity
  8
1
  6
Continuous
 62
     7
370
     9
100
AcDbLine
 10
1462.274066103118
 20
4587.217391304349
 30
0.0
 11
1451.921304299018
 21
4548.580358252786
 31
0.0
  0
LINE
  5
165
330
15D
100
AcDbEntity
  8
1
  6
Continuous
 62
     7
370
     9
100
AcDbLine
 10
1472.626827907219
 20
4548.580358252786
 30
0.0
 11
1451.921304299018
 21
4548.580358252786
 31
0.0
  0
LINE
  5
166
330
15D
100
AcDbEntity
  8
1
  6
Continuous
 62
     7
370
     9
100
AcDbLine
 10
1462.274066103118
 20
4577.558133041458
 30
0.0
 11
1467.450447005169
 21
4558.239616515677
 31
0.0
  0
LINE
  5
167
330
15D
100
AcDbEntity
  8
1
  6
Continuous
 62
     7
370
     9
100
AcDbLine
 10
1462.274066103118
 20
4577.558133041458
 30
0.0
 11
1457.097685201068
 21
4558.239616515677
 31
0.0
  0
LINE
  5
168
330
15D
100
AcDbEntity
  8
1
  6
Continuous
 62
     7
370
     9
100
AcDbLine
 10
1467.450447005169
 20
4558.239616515677
 30
0.0
 11
1457.097685201068
 21
4558.239616515677
 31
0.0
  0
LINE
  5
169
330
15D
100
AcDbEntity
  8
1
  6
Continuous
 62
     7
370
     9
100
AcDbLine
 10
1462.274066103118
 20
4344.217391304349
 30
0.0
 11
1451.921304299018
 21
4382.854424355912
 31
0.0
  0
LINE
  5
16A
330
15D
100
AcDbEntity
  8
1
  6
Continuous
 62
     7
370
     9
100
AcDbLine
 10
1462.274066103118
 20
4344.217391304349
 30
0.0
 11
1472.626827907219
 21
4382.854424355912
 31
0.0
  0
LINE
  5
16B
330
15D
100
AcDbEntity
  8
1
  6
Continuous
 62
     7
370
     9
100
AcDbLine
 10
1451.921304299018
 20
4382.854424355912
 30
0.0
 11
1472.626827907219
 21
4382.854424355912
 31
0.0
  0
LINE
  5
16C
330
15D
100
AcDbEntity
  8
1
  6
Continuous
 62
     7
370
     9
100
AcDbLine
 10
1462.274066103118
 20
4353.87664956724
 30
0.0
 11
1457.097685201068
 21
4373.195166093021
 31
0.0
  0
LINE
  5
16D
330
15D
100
AcDbEntity
  8
1
  6
Continuous
 62
     7
370
     9
100
AcDbLine
 10
1462.274066103118
 20
4353.87664956724
 30
0.0
 11
1467.450447005169
 21
4373.195166093021
 31
0.0
  0
LINE
  5
16E
330
15D
100
AcDbEntity
  8
1
  6
Continuous
 62
     7
370
     9
100
AcDbLine
 10
1457.097685201068
 20
4373.195166093021
 30
0.0
 11
1467.450447005169
 21
4373.195166093021
 31
0.0
  0
TEXT
  5
16F
330
15D
100
AcDbEntity
  8
1
  6
Continuous
 62
     7
370
     9
100
AcDbText
 10
1462.274066103118
 20
4370.717391304349
 30
0.0
 40
100.0
  1
243
 50
89.9999999999999
 41
0.7
100
AcDbText
  0
ENDBLK
  5
15F
330
15D
100
AcDbEntity
  8
0
100
AcDbBlockEnd
  0
BLOCK
  5
172
330
171
100
AcDbEntity
  8
0
100
AcDbBlockBegin
  2
Dim9
 70
     0
 71
     0
 10
0.0
 20
0.0
 30
0.0
  3
Dim9
  1

  0
LINE
  5
174
330
171
100
AcDbEntity
  8
1
  6
Continuous
 62
     7
370
     9
100
AcDbLine
 10
1462.274066103118
 20
4006.217391304349
 30
0.0
 11
1462.274066103118
 21
4344.217391304349
 31
0.0
  0
LINE
  5
175
330
171
100
AcDbEntity
  8
1
  6
Continuous
 62
     7
370
     9
100
AcDbLine
 10
1422.274066103118
 20
4006.217391304349
 30
0.0
 11
1522.274066103118
 21
4006.217391304348
 31
0.0
  0
LINE
  5
176
330
171
100
AcDbEntity
  8
1
  6
Continuous
 62
     7
370
     9
100
AcDbLine
 10
1422.274066103118
 20
4344.217391304349
 30
0.0
 11
1522.274066103118
 21
4344.217391304348
 31
0.0
  0
LINE
  5
177
330
171
100
AcDbEntity
  8
1
  6
Continuous
 62
     7
370
     9
100
AcDbLine
 10
1462.274066103118
 20
4006.217391304349
 30
0.0
 11
1451.921304299018
 21
4044.854424355912
 31
0.0
  0
LINE
  5
178
330
171
100
AcDbEntity
  8
1
  6
Continuous
 62
     7
370
     9
100
AcDbLine
 10
1462.274066103118
 20
4006.217391304349
 30
0.0
 11
1472.626827907219
 21
4044.854424355912
 31
0.0
  0
LINE
  5
179
330
171
100
AcDbEntity
  8
1
  6
Continuous
 62
     7
370
     9
100
AcDbLine
 10
1451.921304299018
 20
4044.854424355912
 30
0.0
 11
1472.626827907219
 21
4044.854424355912
 31
0.0
  0
LINE
  5
17A
330
171
100
AcDbEntity
  8
1
  6
Continuous
 62
     7
370
     9
100
AcDbLine
 10
1462.274066103118
 20
4015.876649567239
 30
0.0
 11
1457.097685201068
 21
4035.195166093021
 31
0.0
  0
LINE
  5
17B
330
171
100
AcDbEntity
  8
1
  6
Continuous
 62
     7
370
     9
100
AcDbLine
 10
1462.274066103118
 20
4015.876649567239
 30
0.0
 11
1467.450447005169
 21
4035.195166093021
 31
0.0
  0
LINE
  5
17C
330
171
100
AcDbEntity
  8
1
  6
Continuous
 62
     7
370
     9
100
AcDbLine
 10
1457.097685201068
 20
4035.195166093021
 30
0.0
 11
1467.450447005169
 21
4035.195166093021
 31
0.0
  0
LINE
  5
17D
330
171
100
AcDbEntity
  8
1
  6
Continuous
 62
     7
370
     9
100
AcDbLine
 10
1462.274066103118
 20
4344.217391304349
 30
0.0
 11
1472.626827907219
 21
4305.580358252786
 31
0.0
  0
LINE
  5
17E
330
171
100
AcDbEntity
  8
1
  6
Continuous
 62
     7
370
     9
100
AcDbLine
 10
1462.274066103118
 20
4344.217391304349
 30
0.0
 11
1451.921304299017
 21
4305.580358252786
 31
0.0
  0
LINE
  5
17F
330
171
100
AcDbEntity
  8
1
  6
Continuous
 62
     7
370
     9
100
AcDbLine
 10
1472.626827907219
 20
4305.580358252786
 30
0.0
 11
1451.921304299017
 21
4305.580358252786
 31
0.0
  0
LINE
  5
180
330
171
100
AcDbEntity
  8
1
  6
Continuous
 62
     7
370
     9
100
AcDbLine
 10
1462.274066103118
 20
4334.558133041458
 30
0.0
 11
1467.450447005169
 21
4315.239616515677
 31
0.0
  0
LINE
  5
181
330
171
100
AcDbEntity
  8
1
  6
Continuous
 62
     7
370
     9
100
AcDbLine
 10
1462.274066103118
 20
4334.558133041458
 30
0.0
 11
1457.097685201068
 21
4315.239616515677
 31
0.0
  0
LINE
  5
182
330
171
100
AcDbEntity
  8
1
  6
Continuous
 62
     7
370
     9
100
AcDbLine
 10
1467.450447005169
 20
4315.239616515677
 30
0.0
 11
1457.097685201068
 21
4315.239616515677
 31
0.0
  0
TEXT
  5
183
330
171
100
AcDbEntity
  8
1
  6
Continuous
 62
     7
370
     9
100
AcDbText
 10
1462.274066103118
 20
4080.217391304349
 30
0.0
 40
100.0
  1
338
 50
89.99999999999991
 41
0.7
100
AcDbText
  0
ENDBLK
  5
173
330
171
100
AcDbEntity
  8
0
100
AcDbBlockEnd
  0
BLOCK
  5
186
330
185
100
AcDbEntity
  8
0
100
AcDbBlockBegin
  2
Dim10
 70
     0
 71
     0
 10
0.0
 20
0.0
 30
0.0
  3
Dim10
  1

  0
LINE
  5
188
330
185
100
AcDbEntity
  8
1
  6
Continuous
 62
     7
370
     9
100
AcDbLine
 10
1462.274066103118
 20
3668.217391304349
 30
0.0
 11
1462.274066103118
 21
4006.217391304349
 31
0.0
  0
LINE
  5
189
330
185
100
AcDbEntity
  8
1
  6
Continuous
 62
     7
370
     9
100
AcDbLine
 10
1422.274066103118
 20
3668.217391304349
 30
0.0
 11
1522.274066103118
 21
3668.217391304349
 31
0.0
  0
LINE
  5
18A
330
185
100
AcDbEntity
  8
1
  6
Continuous
 62
     7
370
     9
100
AcDbLine
 10
1422.274066103118
 20
4006.217391304349
 30
0.0
 11
1522.274066103118
 21
4006.217391304348
 31
0.0
  0
LINE
  5
18B
330
185
100
AcDbEntity
  8
1
  6
Continuous
 62
     7
370
     9
100
AcDbLine
 10
1462.274066103118
 20
3668.217391304349
 30
0.0
 11
1451.921304299018
 21
3706.854424355912
 31
0.0
  0
LINE
  5
18C
330
185
100
AcDbEntity
  8
1
  6
Continuous
 62
     7
370
     9
100
AcDbLine
 10
1462.274066103118
 20
3668.217391304349
 30
0.0
 11
1472.626827907219
 21
3706.854424355912
 31
0.0
  0
LINE
  5
18D
330
185
100
AcDbEntity
  8
1
  6
Continuous
 62
     7
370
     9
100
AcDbLine
 10
1451.921304299018
 20
3706.854424355912
 30
0.0
 11
1472.626827907219
 21
3706.854424355912
 31
0.0
  0
LINE
  5
18E
330
185
100
AcDbEntity
  8
1
  6
Continuous
 62
     7
370
     9
100
AcDbLine
 10
1462.274066103118
 20
3677.876649567239
 30
0.0
 11
1457.097685201068
 21
3697.195166093021
 31
0.0
  0
LINE
  5
18F
330
185
100
AcDbEntity
  8
1
  6
Continuous
 62
     7
370
     9
100
AcDbLine
 10
1462.274066103118
 20
3677.876649567239
 30
0.0
 11
1467.450447005169
 21
3697.195166093021
 31
0.0
  0
LINE
  5
190
330
185
100
AcDbEntity
  8
1
  6
Continuous
 62
     7
370
     9
100
AcDbLine
 10
1457.097685201068
 20
3697.195166093021
 30
0.0
 11
1467.450447005169
 21
3697.195166093021
 31
0.0
  0
LINE
  5
191
330
185
100
AcDbEntity
  8
1
  6
Continuous
 62
     7
370
     9
100
AcDbLine
 10
1462.274066103118
 20
4006.217391304349
 30
0.0
 11
1472.626827907219
 21
3967.580358252786
 31
0.0
  0
LINE
  5
192
330
185
100
AcDbEntity
  8
1
  6
Continuous
 62
     7
370
     9
100
AcDbLine
 10
1462.274066103118
 20
4006.217391304349
 30
0.0
 11
1451.921304299017
 21
3967.580358252786
 31
0.0
  0
LINE
  5
193
330
185
100
AcDbEntity
  8
1
  6
Continuous
 62
     7
370
     9
100
AcDbLine
 10
1472.626827907219
 20
3967.580358252786
 30
0.0
 11
1451.921304299017
 21
3967.580358252786
 31
0.0
  0
LINE
  5
194
330
185
100
AcDbEntity
  8
1
  6
Continuous
 62
     7
370
     9
100
AcDbLine
 10
1462.274066103118
 20
3996.558133041458
 30
0.0
 11
1467.450447005169
 21
3977.239616515677
 31
0.0
  0
LINE
  5
195
330
185
100
AcDbEntity
  8
1
  6
Continuous
 62
     7
370
     9
100
AcDbLine
 10
1462.274066103118
 20
3996.558133041458
 30
0.0
 11
1457.097685201068
 21
3977.239616515677
 31
0.0
  0
LINE
  5
196
330
185
100
AcDbEntity
  8
1
  6
Continuous
 62
     7
370
     9
100
AcDbLine
 10
1467.450447005169
 20
3977.239616515677
 30
0.0
 11
1457.097685201068
 21
3977.239616515677
 31
0.0
  0
TEXT
  5
197
330
185
100
AcDbEntity
  8
1
  6
Continuous
 62
     7
370
     9
100
AcDbText
 10
1462.274066103118
 20
3742.217391304349
 30
0.0
 40
100.0
  1
338
 50
89.99999999999991
 41
0.7
100
AcDbText
  0
ENDBLK
  5
187
330
185
100
AcDbEntity
  8
0
100
AcDbBlockEnd
  0
BLOCK
  5
19A
330
199
100
AcDbEntity
  8
0
100
AcDbBlockBegin
  2
Dim11
 70
     0
 71
     0
 10
0.0
 20
0.0
 30
0.0
  3
Dim11
  1

  0
LINE
  5
19C
330
199
100
AcDbEntity
  8
1
  6
Continuous
 62
     7
370
     9
100
AcDbLine
 10
1462.274066103118
 20
3425.217391304349
 30
0.0
 11
1462.274066103118
 21
3668.217391304349
 31
0.0
  0
LINE
  5
19D
330
199
100
AcDbEntity
  8
1
  6
Continuous
 62
     7
370
     9
100
AcDbLine
 10
1422.274066103118
 20
3425.217391304349
 30
0.0
 11
1522.274066103118
 21
3425.217391304348
 31
0.0
  0
LINE
  5
19E
330
199
100
AcDbEntity
  8
1
  6
Continuous
 62
     7
370
     9
100
AcDbLine
 10
1422.274066103118
 20
3668.217391304349
 30
0.0
 11
1522.274066103118
 21
3668.217391304349
 31
0.0
  0
LINE
  5
19F
330
199
100
AcDbEntity
  8
1
  6
Continuous
 62
     7
370
     9
100
AcDbLine
 10
1462.274066103118
 20
3425.217391304349
 30
0.0
 11
1451.921304299018
 21
3463.854424355912
 31
0.0
  0
LINE
  5
1A0
330
199
100
AcDbEntity
  8
1
  6
Continuous
 62
     7
370
     9
100
AcDbLine
 10
1462.274066103118
 20
3425.217391304349
 30
0.0
 11
1472.626827907219
 21
3463.854424355912
 31
0.0
  0
LINE
  5
1A1
330
199
100
AcDbEntity
  8
1
  6
Continuous
 62
     7
370
     9
100
AcDbLine
 10
1451.921304299018
 20
3463.854424355912
 30
0.0
 11
1472.626827907219
 21
3463.854424355912
 31
0.0
  0
LINE
  5
1A2
330
199
100
AcDbEntity
  8
1
  6
Continuous
 62
     7
370
     9
100
AcDbLine
 10
1462.274066103118
 20
3434.876649567239
 30
0.0
 11
1457.097685201068
 21
3454.195166093021
 31
0.0
  0
LINE
  5
1A3
330
199
100
AcDbEntity
  8
1
  6
Continuous
 62
     7
370
     9
100
AcDbLine
 10
1462.274066103118
 20
3434.876649567239
 30
0.0
 11
1467.450447005169
 21
3454.195166093021
 31
0.0
  0
LINE
  5
1A4
330
199
100
AcDbEntity
  8
1
  6
Continuous
 62
     7
370
     9
100
AcDbLine
 10
1457.097685201068
 20
3454.195166093021
 30
0.0
 11
1467.450447005169
 21
3454.195166093021
 31
0.0
  0
LINE
  5
1A5
330
199
100
AcDbEntity
  8
1
  6
Continuous
 62
     7
370
     9
100
AcDbLine
 10
1462.274066103118
 20
3668.217391304349
 30
0.0
 11
1472.626827907219
 21
3629.580358252786
 31
0.0
  0
LINE
  5
1A6
330
199
100
AcDbEntity
  8
1
  6
Continuous
 62
     7
370
     9
100
AcDbLine
 10
1462.274066103118
 20
3668.217391304349
 30
0.0
 11
1451.921304299017
 21
3629.580358252786
 31
0.0
  0
LINE
  5
1A7
330
199
100
AcDbEntity
  8
1
  6
Continuous
 62
     7
370
     9
100
AcDbLine
 10
1472.626827907219
 20
3629.580358252786
 30
0.0
 11
1451.921304299017
 21
3629.580358252786
 31
0.0
  0
LINE
  5
1A8
330
199
100
AcDbEntity
  8
1
  6
Continuous
 62
     7
370
     9
100
AcDbLine
 10
1462.274066103118
 20
3658.558133041458
 30
0.0
 11
1467.450447005169
 21
3639.239616515677
 31
0.0
  0
LINE
  5
1A9
330
199
100
AcDbEntity
  8
1
  6
Continuous
 62
     7
370
     9
100
AcDbLine
 10
1462.274066103118
 20
3658.558133041458
 30
0.0
 11
1457.097685201068
 21
3639.239616515677
 31
0.0
  0
LINE
  5
1AA
330
199
100
AcDbEntity
  8
1
  6
Continuous
 62
     7
370
     9
100
AcDbLine
 10
1467.450447005169
 20
3639.239616515677
 30
0.0
 11
1457.097685201068
 21
3639.239616515677
 31
0.0
  0
TEXT
  5
1AB
330
199
100
AcDbEntity
  8
1
  6
Continuous
 62
     7
370
     9
100
AcDbText
 10
1462.274066103118
 20
3451.717391304349
 30
0.0
 40
100.0
  1
243
 50
89.99999999999991
 41
0.7
100
AcDbText
  0
ENDBLK
  5
19B
330
199
100
AcDbEntity
  8
0
100
AcDbBlockEnd
  0
BLOCK
  5
1AE
330
1AD
100
AcDbEntity
  8
0
100
AcDbBlockBegin
  2
Dim12
 70
     0
 71
     0
 10
0.0
 20
0.0
 30
0.0
  3
Dim12
  1

  0
LINE
  5
1B0
330
1AD
100
AcDbEntity
  8
1
  6
Continuous
 62
     7
370
     9
100
AcDbLine
 10
1462.274066103118
 20
3182.217391304349
 30
0.0
 11
1462.274066103118
 21
3425.217391304349
 31
0.0
  0
LINE
  5
1B1
330
1AD
100
AcDbEntity
  8
1
  6
Continuous
 62
     7
370
     9
100
AcDbLine
 10
1422.274066103118
 20
3182.217391304349
 30
0.0
 11
1522.274066103118
 21
3182.217391304348
 31
0.0
  0
LINE
  5
1B2
330
1AD
100
AcDbEntity
  8
1
  6
Continuous
 62
     7
370
     9
100
AcDbLine
 10
1422.274066103118
 20
3425.217391304349
 30
0.0
 11
1522.274066103118
 21
3425.217391304348
 31
0.0
  0
LINE
  5
1B3
330
1AD
100
AcDbEntity
  8
1
  6
Continuous
 62
     7
370
     9
100
AcDbLine
 10
1462.274066103118
 20
3182.217391304349
 30
0.0
 11
1451.921304299018
 21
3220.854424355912
 31
0.0
  0
LINE
  5
1B4
330
1AD
100
AcDbEntity
  8
1
  6
Continuous
 62
     7
370
     9
100
AcDbLine
 10
1462.274066103118
 20
3182.217391304349
 30
0.0
 11
1472.626827907219
 21
3220.854424355912
 31
0.0
  0
LINE
  5
1B5
330
1AD
100
AcDbEntity
  8
1
  6
Continuous
 62
     7
370
     9
100
AcDbLine
 10
1451.921304299018
 20
3220.854424355912
 30
0.0
 11
1472.626827907219
 21
3220.854424355912
 31
0.0
  0
LINE
  5
1B6
330
1AD
100
AcDbEntity
  8
1
  6
Continuous
 62
     7
370
     9
100
AcDbLine
 10
1462.274066103118
 20
3191.876649567239
 30
0.0
 11
1457.097685201068
 21
3211.195166093021
 31
0.0
  0
LINE
  5
1B7
330
1AD
100
AcDbEntity
  8
1
  6
Continuous
 62
     7
370
     9
100
AcDbLine
 10
1462.274066103118
 20
3191.876649567239
 30
0.0
 11
1467.450447005169
 21
3211.195166093021
 31
0.0
  0
LINE
  5
1B8
330
1AD
100
AcDbEntity
  8
1
  6
Continuous
 62
     7
370
     9
100
AcDbLine
 10
1457.097685201068
 20
3211.195166093021
 30
0.0
 11
1467.450447005169
 21
3211.195166093021
 31
0.0
  0
LINE
  5
1B9
330
1AD
100
AcDbEntity
  8
1
  6
Continuous
 62
     7
370
     9
100
AcDbLine
 10
1462.274066103118
 20
3425.217391304349
 30
0.0
 11
1472.626827907219
 21
3386.580358252786
 31
0.0
  0
LINE
  5
1BA
330
1AD
100
AcDbEntity
  8
1
  6
Continuous
 62
     7
370
     9
100
AcDbLine
 10
1462.274066103118
 20
3425.217391304349
 30
0.0
 11
1451.921304299017
 21
3386.580358252786
 31
0.0
  0
LINE
  5
1BB
330
1AD
100
AcDbEntity
  8
1
  6
Continuous
 62
     7
370
     9
100
AcDbLine
 10
1472.626827907219
 20
3386.580358252786
 30
0.0
 11
1451.921304299017
 21
3386.580358252786
 31
0.0
  0
LINE
  5
1BC
330
1AD
100
AcDbEntity
  8
1
  6
Continuous
 62
     7
370
     9
100
AcDbLine
 10
1462.274066103118
 20
3415.558133041458
 30
0.0
 11
1467.450447005169
 21
3396.239616515677
 31
0.0
  0
LINE
  5
1BD
330
1AD
100
AcDbEntity
  8
1
  6
Continuous
 62
     7
370
     9
100
AcDbLine
 10
1462.274066103118
 20
3415.558133041458
 30
0.0
 11
1457.097685201068
 21
3396.239616515677
 31
0.0
  0
LINE
  5
1BE
330
1AD
100
AcDbEntity
  8
1
  6
Continuous
 62
     7
370
     9
100
AcDbLine
 10
1467.450447005169
 20
3396.239616515677
 30
0.0
 11
1457.097685201068
 21
3396.239616515677
 31
0.0
  0
TEXT
  5
1BF
330
1AD
100
AcDbEntity
  8
1
  6
Continuous
 62
     7
370
     9
100
AcDbText
 10
1462.274066103118
 20
3208.717391304349
 30
0.0
 40
100.0
  1
243
 50
89.99999999999991
 41
0.7
100
AcDbText
  0
ENDBLK
  5
1AF
330
1AD
100
AcDbEntity
  8
0
100
AcDbBlockEnd
  0
BLOCK
  5
1C2
330
1C1
100
AcDbEntity
  8
0
100
AcDbBlockBegin
  2
Dim13
 70
     0
 71
     0
 10
0.0
 20
0.0
 30
0.0
  3
Dim13
  1

  0
LINE
  5
1C4
330
1C1
100
AcDbEntity
  8
1
  6
Continuous
 62
     7
370
     9
100
AcDbLine
 10
1562.274066103119
 20
3056.217391304348
 30
0.0
 11
7313.77406610312
 21
3056.217391304348
 31
0.0
  0
LINE
  5
1C5
330
1C1
100
AcDbEntity
  8
1
  6
Continuous
 62
     7
370
     9
100
AcDbLine
 10
1562.274066103119
 20
3016.217391304348
 30
0.0
 11
1562.274066103119
 21
3126.217391304348
 31
0.0
  0
LINE
  5
1C6
330
1C1
100
AcDbEntity
  8
1
  6
Continuous
 62
     7
370
     9
100
AcDbLine
 10
7313.77406610312
 20
3016.217391304348
 30
0.0
 11
7313.774066103118
 21
3306.217391304348
 31
0.0
  0
LINE
  5
1C7
330
1C1
100
AcDbEntity
  8
1
  6
Continuous
 62
     7
370
     9
100
AcDbLine
 10
1562.274066103119
 20
3056.217391304348
 30
0.0
 11
1600.911099154682
 21
3066.570153108449
 31
0.0
  0
LINE
  5
1C8
330
1C1
100
AcDbEntity
  8
1
  6
Continuous
 62
     7
370
     9
100
AcDbLine
 10
1562.274066103119
 20
3056.217391304348
 30
0.0
 11
1600.911099154682
 21
3045.864629500247
 31
0.0
  0
LINE
  5
1C9
330
1C1
100
AcDbEntity
  8
1
  6
Continuous
 62
     7
370
     9
100
AcDbLine
 10
1600.911099154682
 20
3066.570153108449
 30
0.0
 11
1600.911099154682
 21
3045.864629500247
 31
0.0
  0
LINE
  5
1CA
330
1C1
100
AcDbEntity
  8
1
  6
Continuous
 62
     7
370
     9
100
AcDbLine
 10
1571.93332436601
 20
3056.217391304348
 30
0.0
 11
1591.251840891791
 21
3061.393772206398
 31
0.0
  0
LINE
  5
1CB
330
1C1
100
AcDbEntity
  8
1
  6
Continuous
 62
     7
370
     9
100
AcDbLine
 10
1571.93332436601
 20
3056.217391304348
 30
0.0
 11
1591.251840891791
 21
3051.041010402298
 31
0.0
  0
LINE
  5
1CC
330
1C1
100
AcDbEntity
  8
1
  6
Continuous
 62
     7
370
     9
100
AcDbLine
 10
1591.251840891791
 20
3061.393772206398
 30
0.0
 11
1591.251840891791
 21
3051.041010402298
 31
0.0
  0
LINE
  5
1CD
330
1C1
100
AcDbEntity
  8
1
  6
Continuous
 62
     7
370
     9
100
AcDbLine
 10
7313.77406610312
 20
3056.217391304348
 30
0.0
 11
7275.137033051557
 21
3045.864629500247
 31
0.0
  0
LINE
  5
1CE
330
1C1
100
AcDbEntity
  8
1
  6
Continuous
 62
     7
370
     9
100
AcDbLine
 10
7313.77406610312
 20
3056.217391304348
 30
0.0
 11
7275.137033051557
 21
3066.570153108449
 31
0.0
  0
LINE
  5
1CF
330
1C1
100
AcDbEntity
  8
1
  6
Continuous
 62
     7
370
     9
100
AcDbLine
 10
7275.137033051557
 20
3045.864629500247
 30
0.0
 11
7275.137033051557
 21
3066.570153108449
 31
0.0
  0
LINE
  5
1D0
330
1C1
100
AcDbEntity
  8
1
  6
Continuous
 62
     7
370
     9
100
AcDbLine
 10
7304.114807840229
 20
3056.217391304348
 30
0.0
 11
7284.796291314448
 21
3051.041010402298
 31
0.0
  0
LINE
  5
1D1
330
1C1
100
AcDbEntity
  8
1
  6
Continuous
 62
     7
370
     9
100
AcDbLine
 10
7304.114807840229
 20
3056.217391304348
 30
0.0
 11
7284.796291314448
 21
3061.393772206398
 31
0.0
  0
LINE
  5
1D2
330
1C1
100
AcDbEntity
  8
1
  6
Continuous
 62
     7
370
     9
100
AcDbLine
 10
7284.796291314448
 20
3051.041010402298
 30
0.0
 11
7284.796291314448
 21
3061.393772206398
 31
0.0
  0
TEXT
  5
1D3
330
1C1
100
AcDbEntity
  8
1
  6
Continuous
 62
     7
370
     9
100
AcDbText
 10
4238.024066103119
 20
3056.217391304348
 30
0.0
 40
100.0
  1
5751.5
 41
0.7
100
AcDbText
  0
ENDBLK
  5
1C3
330
1C1
100
AcDbEntity
  8
0
100
AcDbBlockEnd
  0
BLOCK
  5
1F3
330
1F2
100
AcDbEntity
  8
0
100
AcDbBlockBegin
  2
*G31
 70
     1
 71
     0
 10
0.0
 20
0.0
 30
0.0
  3
*G31
  1

  0
LINE
  5
1F5
330
1F2
100
AcDbEntity
  8
1
  6
Continuous
 62
     7
370
    30
100
AcDbLine
 10
6392.274066103118
 20
3995.217391304348
 30
0.0
 11
6392.274066103118
 21
3985.217391304348
 31
0.0
  0
LINE
  5
1F6
330
1F2
100
AcDbEntity
  8
1
  6
Continuous
 62
     7
370
    30
100
AcDbLine
 10
6392.274066103118
 20
3985.217391304348
 30
0.0
 11
6492.274066103118
 21
3985.217391304348
 31
0.0
  0
LINE
  5
1F7
330
1F2
100
AcDbEntity
  8
1
  6
Continuous
 62
     7
370
    30
100
AcDbLine
 10
6492.274066103118
 20
3985.217391304348
 30
0.0
 11
6492.274066103118
 21
3995.217391304348
 31
0.0
  0
LINE
  5
1F8
330
1F2
100
AcDbEntity
  8
1
  6
Continuous
 62
     7
370
    30
100
AcDbLine
 10
6492.274066103118
 20
3995.217391304348
 30
0.0
 11
6392.274066103118
 21
3995.217391304348
 31
0.0
  0
ENDBLK
  5
1F4
330
1F2
100
AcDbEntity
  8
0
100
AcDbBlockEnd
  0
BLOCK
  5
1FB
330
1FA
100
AcDbEntity
  8
0
100
AcDbBlockBegin
  2
*G32
 70
     1
 71
     0
 10
0.0
 20
0.0
 30
0.0
  3
*G32
  1

  0
LINE
  5
1FD
330
1FA
100
AcDbEntity
  8
1
  6
Continuous
 62
     7
370
    30
100
AcDbLine
 10
6392.274066103118
 20
4027.217391304348
 30
0.0
 11
6392.274066103118
 21
4017.217391304348
 31
0.0
  0
LINE
  5
1FE
330
1FA
100
AcDbEntity
  8
1
  6
Continuous
 62
     7
370
    30
100
AcDbLine
 10
6392.274066103118
 20
4017.217391304348
 30
0.0
 11
6492.274066103118
 21
4017.217391304348
 31
0.0
  0
LINE
  5
1FF
330
1FA
100
AcDbEntity
  8
1
  6
Continuous
 62
     7
370
    30
100
AcDbLine
 10
6492.274066103118
 20
4017.217391304348
 30
0.0
 11
6492.274066103118
 21
4027.217391304348
 31
0.0
  0
LINE
  5
200
330
1FA
100
AcDbEntity
  8
1
  6
Continuous
 62
     7
370
    30
100
AcDbLine
 10
6492.274066103118
 20
4027.217391304348
 30
0.0
 11
6392.274066103118
 21
4027.217391304348
 31
0.0
  0
ENDBLK
  5
1FC
330
1FA
100
AcDbEntity
  8
0
100
AcDbBlockEnd
  0
BLOCK
  5
205
330
204
100
AcDbEntity
  8
0
100
AcDbBlockBegin
  2
*G33
 70
     1
 71
     0
 10
0.0
 20
0.0
 30
0.0
  3
*G33
  1

  0
LINE
  5
207
330
204
100
AcDbEntity
  8
1
  6
Continuous
 62
     7
370
    30
100
AcDbLine
 10
1912.274066103118
 20
4022.217391304348
 30
0.0
 11
1912.274066103118
 21
3990.217391304348
 31
0.0
  0
LINE
  5
208
330
204
100
AcDbEntity
  8
1
  6
Continuous
 62
     7
370
    30
100
AcDbLine
 10
1912.274066103118
 20
3990.217391304348
 30
0.0
 11
1962.274066103118
 21
3990.217391304348
 31
0.0
  0
LINE
  5
209
330
204
100
AcDbEntity
  8
1
  6
Continuous
 62
     7
370
    30
100
AcDbLine
 10
1962.274066103118
 20
3990.217391304348
 30
0.0
 11
1962.274066103118
 21
4022.217391304348
 31
0.0
  0
LINE
  5
20A
330
204
100
AcDbEntity
  8
1
  6
Continuous
 62
     7
370
    30
100
AcDbLine
 10
1962.274066103118
 20
4022.217391304348
 30
0.0
 11
1912.274066103118
 21
4022.217391304348
 31
0.0
  0
ENDBLK
  5
206
330
204
100
AcDbEntity
  8
0
100
AcDbBlockEnd
  0
BLOCK
  5
20D
330
20C
100
AcDbEntity
  8
0
100
AcDbBlockBegin
  2
*G34
 70
     1
 71
     0
 10
0.0
 20
0.0
 30
0.0
  3
*G34
  1

  0
LINE
  5
20F
330
20C
100
AcDbEntity
  8
1
  6
Continuous
 62
     7
370
    30
100
AcDbLine
 10
1562.274066103118
 20
4022.217391304348
 30
0.0
 11
1562.274066103118
 21
3990.217391304348
 31
0.0
  0
LINE
  5
210
330
20C
100
AcDbEntity
  8
1
  6
Continuous
 62
     7
370
    30
100
AcDbLine
 10
1562.274066103118
 20
3990.217391304348
 30
0.0
 11
1612.274066103118
 21
3990.217391304348
 31
0.0
  0
LINE
  5
211
330
20C
100
AcDbEntity
  8
1
  6
Continuous
 62
     7
370
    30
100
AcDbLine
 10
1612.274066103118
 20
3990.217391304348
 30
0.0
 11
1612.274066103118
 21
4022.217391304348
 31
0.0
  0
LINE
  5
212
330
20C
100
AcDbEntity
  8
1
  6
Continuous
 62
     7
370
    30
100
AcDbLine
 10
1612.274066103118
 20
4022.217391304348
 30
0.0
 11
1562.274066103118
 21
4022.217391304348
 31
0.0
  0
ENDBLK
  5
20E
330
20C
100
AcDbEntity
  8
0
100
AcDbBlockEnd
  0
BLOCK
  5
215
330
214
100
AcDbEntity
  8
0
100
AcDbBlockBegin
  2
*G35
 70
     1
 71
     0
 10
0.0
 20
0.0
 30
0.0
  3
*G35
  1

  0
LINE
  5
217
330
214
100
AcDbEntity
  8
1
  6
Continuous
 62
     7
370
    30
100
AcDbLine
 10
1912.274066103118
 20
4360.217391304348
 30
0.0
 11
1912.274066103118
 21
4328.217391304348
 31
0.0
  0
LINE
  5
218
330
214
100
AcDbEntity
  8
1
  6
Continuous
 62
     7
370
    30
100
AcDbLine
 10
1912.274066103118
 20
4328.217391304348
 30
0.0
 11
1962.274066103118
 21
4328.217391304348
 31
0.0
  0
LINE
  5
219
330
214
100
AcDbEntity
  8
1
  6
Continuous
 62
     7
370
    30
100
AcDbLine
 10
1962.274066103118
 20
4328.217391304348
 30
0.0
 11
1962.274066103118
 21
4360.217391304348
 31
0.0
  0
LINE
  5
21A
330
214
100
AcDbEntity
  8
1
  6
Continuous
 62
     7
370
    30
100
AcDbLine
 10
1962.274066103118
 20
4360.217391304348
 30
0.0
 11
1912.274066103118
 21
4360.217391304348
 31
0.0
  0
ENDBLK
  5
216
330
214
100
AcDbEntity
  8
0
100
AcDbBlockEnd
  0
BLOCK
  5
21D
330
21C
100
AcDbEntity
  8
0
100
AcDbBlockBegin
  2
*G36
 70
     1
 71
     0
 10
0.0
 20
0.0
 30
0.0
  3
*G36
  1

  0
LINE
  5
21F
330
21C
100
AcDbEntity
  8
1
  6
Continuous
 62
     7
370
    30
100
AcDbLine
 10
1562.274066103118
 20
4360.217391304348
 30
0.0
 11
1562.274066103118
 21
4328.217391304348
 31
0.0
  0
LINE
  5
220
330
21C
100
AcDbEntity
  8
1
  6
Continuous
 62
     7
370
    30
100
AcDbLine
 10
1562.274066103118
 20
4328.217391304348
 30
0.0
 11
1612.274066103118
 21
4328.217391304348
 31
0.0
  0
LINE
  5
221
330
21C
100
AcDbEntity
  8
1
  6
Continuous
 62
     7
370
    30
100
AcDbLine
 10
1612.274066103118
 20
4328.217391304348
 30
0.0
 11
1612.274066103118
 21
4360.217391304348
 31
0.0
  0
LINE
  5
222
330
21C
100
AcDbEntity
  8
1
  6
Continuous
 62
     7
370
    30
100
AcDbLine
 10
1612.274066103118
 20
4360.217391304348
 30
0.0
 11
1562.274066103118
 21
4360.217391304348
 31
0.0
  0
ENDBLK
  5
21E
330
21C
100
AcDbEntity
  8
0
100
AcDbBlockEnd
  0
BLOCK
  5
225
330
224
100
AcDbEntity
  8
0
100
AcDbBlockBegin
  2
*G37
 70
     1
 71
     0
 10
0.0
 20
0.0
 30
0.0
  3
*G37
  1

  0
LINE
  5
227
330
224
100
AcDbEntity
  8
1
  6
Continuous
 62
     7
370
    30
100
AcDbLine
 10
1912.274066103118
 20
4603.217391304348
 30
0.0
 11
1912.274066103118
 21
4571.217391304348
 31
0.0
  0
LINE
  5
228
330
224
100
AcDbEntity
  8
1
  6
Continuous
 62
     7
370
    30
100
AcDbLine
 10
1912.274066103118
 20
4571.217391304348
 30
0.0
 11
1962.274066103118
 21
4571.217391304348
 31
0.0
  0
LINE
  5
229
330
224
100
AcDbEntity
  8
1
  6
Continuous
 62
     7
370
    30
100
AcDbLine
 10
1962.274066103118
 20
4571.217391304348
 30
0.0
 11
1962.274066103118
 21
4603.217391304348
 31
0.0
  0
LINE
  5
22A
330
224
100
AcDbEntity
  8
1
  6
Continuous
 62
     7
370
    30
100
AcDbLine
 10
1962.274066103118
 20
4603.217391304348
 30
0.0
 11
1912.274066103118
 21
4603.217391304348
 31
0.0
  0
ENDBLK
  5
226
330
224
100
AcDbEntity
  8
0
100
AcDbBlockEnd
  0
BLOCK
  5
22D
330
22C
100
AcDbEntity
  8
0
100
AcDbBlockBegin
  2
*G38
 70
     1
 71
     0
 10
0.0
 20
0.0
 30
0.0
  3
*G38
  1

  0
LINE
  5
22F
330
22C
100
AcDbEntity
  8
1
  6
Continuous
 62
     7
370
    30
100
AcDbLine
 10
1562.274066103118
 20
4603.217391304348
 30
0.0
 11
1562.274066103118
 21
4571.217391304348
 31
0.0
  0
LINE
  5
230
330
22C
100
AcDbEntity
  8
1
  6
Continuous
 62
     7
370
    30
100
AcDbLine
 10
1562.274066103118
 20
4571.217391304348
 30
0.0
 11
1612.274066103118
 21
4571.217391304348
 31
0.0
  0
LINE
  5
231
330
22C
100
AcDbEntity
  8
1
  6
Continuous
 62
     7
370
    30
100
AcDbLine
 10
1612.274066103118
 20
4571.217391304348
 30
0.0
 11
1612.274066103118
 21
4603.217391304348
 31
0.0
  0
LINE
  5
232
330
22C
100
AcDbEntity
  8
1
  6
Continuous
 62
     7
370
    30
100
AcDbLine
 10
1612.274066103118
 20
4603.217391304348
 30
0.0
 11
1562.274066103118
 21
4603.217391304348
 31
0.0
  0
ENDBLK
  5
22E
330
22C
100
AcDbEntity
  8
0
100
AcDbBlockEnd
  0
BLOCK
  5
239
330
238
100
AcDbEntity
  8
0
100
AcDbBlockBegin
  2
*G39
 70
     1
 71
     0
 10
0.0
 20
0.0
 30
0.0
  3
*G39
  1

  0
LINE
  5
23B
330
238
100
AcDbEntity
  8
1
  6
Continuous
 62
     7
370
    30
100
AcDbLine
 10
1912.274066103118
 20
3684.217391304348
 30
0.0
 11
1912.274066103118
 21
3652.217391304348
 31
0.0
  0
LINE
  5
23C
330
238
100
AcDbEntity
  8
1
  6
Continuous
 62
     7
370
    30
100
AcDbLine
 10
1912.274066103118
 20
3652.217391304348
 30
0.0
 11
1962.274066103118
 21
3652.217391304348
 31
0.0
  0
LINE
  5
23D
330
238
100
AcDbEntity
  8
1
  6
Continuous
 62
     7
370
    30
100
AcDbLine
 10
1962.274066103118
 20
3652.217391304348
 30
0.0
 11
1962.274066103118
 21
3684.217391304348
 31
0.0
  0
LINE
  5
23E
330
238
100
AcDbEntity
  8
1
  6
Continuous
 62
     7
370
    30
100
AcDbLine
 10
1962.274066103118
 20
3684.217391304348
 30
0.0
 11
1912.274066103118
 21
3684.217391304348
 31
0.0
  0
ENDBLK
  5
23A
330
238
100
AcDbEntity
  8
0
100
AcDbBlockEnd
  0
BLOCK
  5
241
330
240
100
AcDbEntity
  8
0
100
AcDbBlockBegin
  2
*G40
 70
     1
 71
     0
 10
0.0
 20
0.0
 30
0.0
  3
*G40
  1

  0
LINE
  5
243
330
240
100
AcDbEntity
  8
1
  6
Continuous
 62
     7
370
    30
100
AcDbLine
 10
1562.274066103118
 20
3684.217391304348
 30
0.0
 11
1562.274066103118
 21
3652.217391304349
 31
0.0
  0
LINE
  5
244
330
240
100
AcDbEntity
  8
1
  6
Continuous
 62
     7
370
    30
100
AcDbLine
 10
1562.274066103118
 20
3652.217391304349
 30
0.0
 11
1612.274066103118
 21
3652.217391304349
 31
0.0
  0
LINE
  5
245
330
240
100
AcDbEntity
  8
1
  6
Continuous
 62
     7
370
    30
100
AcDbLine
 10
1612.274066103118
 20
3652.217391304349
 30
0.0
 11
1612.274066103118
 21
3684.217391304348
 31
0.0
  0
LINE
  5
246
330
240
100
AcDbEntity
  8
1
  6
Continuous
 62
     7
370
    30
100
AcDbLine
 10
1612.274066103118
 20
3684.217391304348
 30
0.0
 11
1562.274066103118
 21
3684.217391304348
 31
0.0
  0
ENDBLK
  5
242
330
240
100
AcDbEntity
  8
0
100
AcDbBlockEnd
  0
BLOCK
  5
249
330
248
100
AcDbEntity
  8
0
100
AcDbBlockBegin
  2
*G41
 70
     1
 71
     0
 10
0.0
 20
0.0
 30
0.0
  3
*G41
  1

  0
LINE
  5
24B
330
248
100
AcDbEntity
  8
1
  6
Continuous
 62
     7
370
    30
100
AcDbLine
 10
1912.274066103118
 20
3441.217391304348
 30
0.0
 11
1912.274066103118
 21
3409.217391304348
 31
0.0
  0
LINE
  5
24C
330
248
100
AcDbEntity
  8
1
  6
Continuous
 62
     7
370
    30
100
AcDbLine
 10
1912.274066103118
 20
3409.217391304348
 30
0.0
 11
1962.274066103118
 21
3409.217391304348
 31
0.0
  0
LINE
  5
24D
330
248
100
AcDbEntity
  8
1
  6
Continuous
 62
     7
370
    30
100
AcDbLine
 10
1962.274066103118
 20
3409.217391304348
 30
0.0
 11
1962.274066103118
 21
3441.217391304348
 31
0.0
  0
LINE
  5
24E
330
248
100
AcDbEntity
  8
1
  6
Continuous
 62
     7
370
    30
100
AcDbLine
 10
1962.274066103118
 20
3441.217391304348
 30
0.0
 11
1912.274066103118
 21
3441.217391304348
 31
0.0
  0
ENDBLK
  5
24A
330
248
100
AcDbEntity
  8
0
100
AcDbBlockEnd
  0
BLOCK
  5
251
330
250
100
AcDbEntity
  8
0
100
AcDbBlockBegin
  2
*G42
 70
     1
 71
     0
 10
0.0
 20
0.0
 30
0.0
  3
*G42
  1

  0
LINE
  5
253
330
250
100
AcDbEntity
  8
1
  6
Continuous
 62
     7
370
    30
100
AcDbLine
 10
1562.274066103118
 20
3441.217391304348
 30
0.0
 11
1562.274066103118
 21
3409.217391304348
 31
0.0
  0
LINE
  5
254
330
250
100
AcDbEntity
  8
1
  6
Continuous
 62
     7
370
    30
100
AcDbLine
 10
1562.274066103118
 20
3409.217391304348
 30
0.0
 11
1612.274066103118
 21
3409.217391304348
 31
0.0
  0
LINE
  5
255
330
250
100
AcDbEntity
  8
1
  6
Continuous
 62
     7
370
    30
100
AcDbLine
 10
1612.274066103118
 20
3409.217391304348
 30
0.0
 11
1612.274066103118
 21
3441.217391304348
 31
0.0
  0
LINE
  5
256
330
250
100
AcDbEntity
  8
1
  6
Continuous
 62
     7
370
    30
100
AcDbLine
 10
1612.274066103118
 20
3441.217391304348
 30
0.0
 11
1562.274066103118
 21
3441.217391304348
 31
0.0
  0
ENDBLK
  5
252
330
250
100
AcDbEntity
  8
0
100
AcDbBlockEnd
  0
BLOCK
  5
25E
330
25D
100
AcDbEntity
  8
0
100
AcDbBlockBegin
  2
*G43
 70
     1
 71
     0
 10
0.0
 20
0.0
 30
0.0
  3
*G43
  1

  0
LINE
  5
260
330
25D
100
AcDbEntity
  8
1
  6
Continuous
 62
     7
370
    30
100
AcDbLine
 10
2756.274066103118
 20
4404.217391304348
 30
0.0
 11
2756.274066103118
 21
4176.217391304348
 31
0.0
  0
LINE
  5
261
330
25D
100
AcDbEntity
  8
1
  6
Continuous
 62
     7
370
    30
100
AcDbLine
 10
2756.274066103118
 20
4176.217391304348
 30
0.0
 11
2768.274066103118
 21
4176.217391304348
 31
0.0
  0
LINE
  5
262
330
25D
100
AcDbEntity
  8
1
  6
Continuous
 62
     7
370
    30
100
AcDbLine
 10
2768.274066103118
 20
4176.217391304348
 30
0.0
 11
2768.274066103118
 21
4404.217391304348
 31
0.0
  0
LINE
  5
263
330
25D
100
AcDbEntity
  8
1
  6
Continuous
 62
     7
370
    30
100
AcDbLine
 10
2768.274066103118
 20
4404.217391304348
 30
0.0
 11
2756.274066103118
 21
4404.217391304348
 31
0.0
  0
ENDBLK
  5
25F
330
25D
100
AcDbEntity
  8
0
100
AcDbBlockEnd
  0
BLOCK
  5
266
330
265
100
AcDbEntity
  8
0
100
AcDbBlockBegin
  2
*G44
 70
     1
 71
     0
 10
0.0
 20
0.0
 30
0.0
  3
*G44
  1

  0
LINE
  5
268
330
265
100
AcDbEntity
  8
1
  6
Continuous
 62
     7
370
    30
100
AcDbLine
 10
3156.274066103118
 20
4404.217391304348
 30
0.0
 11
3156.274066103118
 21
4176.217391304348
 31
0.0
  0
LINE
  5
269
330
265
100
AcDbEntity
  8
1
  6
Continuous
 62
     7
370
    30
100
AcDbLine
 10
3156.274066103118
 20
4176.217391304348
 30
0.0
 11
3168.274066103118
 21
4176.217391304348
 31
0.0
  0
LINE
  5
26A
330
265
100
AcDbEntity
  8
1
  6
Continuous
 62
     7
370
    30
100
AcDbLine
 10
3168.274066103118
 20
4176.217391304348
 30
0.0
 11
3168.274066103118
 21
4404.217391304348
 31
0.0
  0
LINE
  5
26B
330
265
100
AcDbEntity
  8
1
  6
Continuous
 62
     7
370
    30
100
AcDbLine
 10
3168.274066103118
 20
4404.217391304348
 30
0.0
 11
3156.274066103118
 21
4404.217391304348
 31
0.0
  0
ENDBLK
  5
267
330
265
100
AcDbEntity
  8
0
100
AcDbBlockEnd
  0
BLOCK
  5
26E
330
26D
100
AcDbEntity
  8
0
100
AcDbBlockBegin
  2
*G45
 70
     1
 71
     0
 10
0.0
 20
0.0
 30
0.0
  3
*G45
  1

  0
LINE
  5
270
330
26D
100
AcDbEntity
  8
1
  6
Continuous
 62
     7
370
    30
100
AcDbLine
 10
3556.274066103119
 20
4404.217391304349
 30
0.0
 11
3556.274066103119
 21
4176.217391304348
 31
0.0
  0
LINE
  5
271
330
26D
100
AcDbEntity
  8
1
  6
Continuous
 62
     7
370
    30
100
AcDbLine
 10
3556.274066103119
 20
4176.217391304348
 30
0.0
 11
3568.274066103119
 21
4176.217391304348
 31
0.0
  0
LINE
  5
272
330
26D
100
AcDbEntity
  8
1
  6
Continuous
 62
     7
370
    30
100
AcDbLine
 10
3568.274066103119
 20
4176.217391304348
 30
0.0
 11
3568.274066103119
 21
4404.217391304349
 31
0.0
  0
LINE
  5
273
330
26D
100
AcDbEntity
  8
1
  6
Continuous
 62
     7
370
    30
100
AcDbLine
 10
3568.274066103119
 20
4404.217391304349
 30
0.0
 11
3556.274066103119
 21
4404.217391304349
 31
0.0
  0
ENDBLK
  5
26F
330
26D
100
AcDbEntity
  8
0
100
AcDbBlockEnd
  0
BLOCK
  5
276
330
275
100
AcDbEntity
  8
0
100
AcDbBlockBegin
  2
*G46
 70
     1
 71
     0
 10
0.0
 20
0.0
 30
0.0
  3
*G46
  1

  0
LINE
  5
278
330
275
100
AcDbEntity
  8
1
  6
Continuous
 62
     7
370
    30
100
AcDbLine
 10
3930.274066103118
 20
4404.217391304348
 30
0.0
 11
3930.274066103118
 21
4176.217391304348
 31
0.0
  0
LINE
  5
279
330
275
100
AcDbEntity
  8
1
  6
Continuous
 62
     7
370
    30
100
AcDbLine
 10
3930.274066103118
 20
4176.217391304348
 30
0.0
 11
3942.274066103118
 21
4176.217391304348
 31
0.0
  0
LINE
  5
27A
330
275
100
AcDbEntity
  8
1
  6
Continuous
 62
     7
370
    30
100
AcDbLine
 10
3942.274066103118
 20
4176.217391304348
 30
0.0
 11
3942.274066103118
 21
4404.217391304348
 31
0.0
  0
LINE
  5
27B
330
275
100
AcDbEntity
  8
1
  6
Continuous
 62
     7
370
    30
100
AcDbLine
 10
3942.274066103118
 20
4404.217391304348
 30
0.0
 11
3930.274066103118
 21
4404.217391304348
 31
0.0
  0
ENDBLK
  5
277
330
275
100
AcDbEntity
  8
0
100
AcDbBlockEnd
  0
BLOCK
  5
27E
330
27D
100
AcDbEntity
  8
0
100
AcDbBlockBegin
  2
*G47
 70
     1
 71
     0
 10
0.0
 20
0.0
 30
0.0
  3
*G47
  1

  0
LINE
  5
280
330
27D
100
AcDbEntity
  8
1
  6
Continuous
 62
     7
370
    30
100
AcDbLine
 10
2394.274066103118
 20
4404.217391304348
 30
0.0
 11
2394.274066103118
 21
4176.217391304348
 31
0.0
  0
LINE
  5
281
330
27D
100
AcDbEntity
  8
1
  6
Continuous
 62
     7
370
    30
100
AcDbLine
 10
2394.274066103118
 20
4176.217391304348
 30
0.0
 11
2382.274066103118
 21
4176.217391304348
 31
0.0
  0
LINE
  5
282
330
27D
100
AcDbEntity
  8
1
  6
Continuous
 62
     7
370
    30
100
AcDbLine
 10
2382.274066103118
 20
4176.217391304348
 30
0.0
 11
2382.274066103118
 21
4404.217391304348
 31
0.0
  0
LINE
  5
283
330
27D
100
AcDbEntity
  8
1
  6
Continuous
 62
     7
370
    30
100
AcDbLine
 10
2382.274066103118
 20
4404.217391304348
 30
0.0
 11
2394.274066103118
 21
4404.217391304348
 31
0.0
  0
ENDBLK
  5
27F
330
27D
100
AcDbEntity
  8
0
100
AcDbBlockEnd
  0
BLOCK
  5
287
330
286
100
AcDbEntity
  8
0
100
AcDbBlockBegin
  2
*G48
 70
     1
 71
     0
 10
0.0
 20
0.0
 30
0.0
  3
*G48
  1

  0
LINE
  5
289
330
286
100
AcDbEntity
  8
1
  6
Continuous
 62
     7
370
    30
100
AcDbLine
 10
3962.274066103118
 20
4404.217391304348
 30
0.0
 11
3962.274066103118
 21
4436.217391304348
 31
0.0
  0
LINE
  5
28A
330
286
100
AcDbEntity
  8
1
  6
Continuous
 62
     7
370
    30
100
AcDbLine
 10
3962.274066103118
 20
4436.217391304348
 30
0.0
 11
2362.274066103118
 21
4436.217391304348
 31
0.0
  0
LINE
  5
28B
330
286
100
AcDbEntity
  8
1
  6
Continuous
 62
     7
370
    30
100
AcDbLine
 10
2362.274066103118
 20
4436.217391304348
 30
0.0
 11
2362.274066103118
 21
4404.217391304348
 31
0.0
  0
LINE
  5
28C
330
286
100
AcDbEntity
  8
1
  6
Continuous
 62
     7
370
    30
100
AcDbLine
 10
2362.274066103118
 20
4404.217391304348
 30
0.0
 11
3962.274066103118
 21
4404.217391304348
 31
0.0
  0
ENDBLK
  5
288
330
286
100
AcDbEntity
  8
0
100
AcDbBlockEnd
  0
BLOCK
  5
28F
330
28E
100
AcDbEntity
  8
0
100
AcDbBlockBegin
  2
*G49
 70
     1
 71
     0
 10
0.0
 20
0.0
 30
0.0
  3
*G49
  1

  0
LINE
  5
291
330
28E
100
AcDbEntity
  8
1
  6
DASHDOT
 62
     7
370
     9
100
AcDbLine
 10
2362.274066103118
 20
4436.217391304348
 30
0.0
 11
2362.274066103118
 21
4404.217391304348
 31
0.0
  0
LINE
  5
292
330
28E
100
AcDbEntity
  8
1
  6
DASHDOT
 62
     7
370
     9
100
AcDbLine
 10
2362.274066103118
 20
4404.217391304348
 30
0.0
 11
3962.274066103118
 21
4404.217391304348
 31
0.0
  0
LINE
  5
293
330
28E
100
AcDbEntity
  8
1
  6
DASHDOT
 62
     7
370
     9
100
AcDbLine
 10
3962.274066103118
 20
4404.217391304348
 30
0.0
 11
3962.274066103118
 21
4436.217391304348
 31
0.0
  0
LINE
  5
294
330
28E
100
AcDbEntity
  8
1
  6
DASHDOT
 62
     7
370
     9
100
AcDbLine
 10
3962.274066103118
 20
4436.217391304348
 30
0.0
 11
2362.274066103118
 21
4436.217391304348
 31
0.0
  0
ENDBLK
  5
290
330
28E
100
AcDbEntity
  8
0
100
AcDbBlockEnd
  0
BLOCK
  5
297
330
296
100
AcDbEntity
  8
0
100
AcDbBlockBegin
  2
*G50
 70
     1
 71
     0
 10
0.0
 20
0.0
 30
0.0
  3
*G50
  1

  0
LINE
  5
299
330
296
100
AcDbEntity
  8
1
  6
Continuous
 62
     7
370
    30
100
AcDbLine
 10
2756.274066103118
 20
3836.217391304348
 30
0.0
 11
2756.274066103118
 21
3608.217391304348
 31
0.0
  0
LINE
  5
29A
330
296
100
AcDbEntity
  8
1
  6
Continuous
 62
     7
370
    30
100
AcDbLine
 10
2756.274066103118
 20
3608.217391304348
 30
0.0
 11
2768.274066103118
 21
3608.217391304348
 31
0.0
  0
LINE
  5
29B
330
296
100
AcDbEntity
  8
1
  6
Continuous
 62
     7
370
    30
100
AcDbLine
 10
2768.274066103118
 20
3608.217391304348
 30
0.0
 11
2768.274066103118
 21
3836.217391304348
 31
0.0
  0
LINE
  5
29C
330
296
100
AcDbEntity
  8
1
  6
Continuous
 62
     7
370
    30
100
AcDbLine
 10
2768.274066103118
 20
3836.217391304348
 30
0.0
 11
2756.274066103118
 21
3836.217391304348
 31
0.0
  0
ENDBLK
  5
298
330
296
100
AcDbEntity
  8
0
100
AcDbBlockEnd
  0
BLOCK
  5
29F
330
29E
100
AcDbEntity
  8
0
100
AcDbBlockBegin
  2
*G51
 70
     1
 71
     0
 10
0.0
 20
0.0
 30
0.0
  3
*G51
  1

  0
LINE
  5
2A1
330
29E
100
AcDbEntity
  8
1
  6
Continuous
 62
     7
370
    30
100
AcDbLine
 10
3156.274066103118
 20
3836.217391304348
 30
0.0
 11
3156.274066103118
 21
3608.217391304348
 31
0.0
  0
LINE
  5
2A2
330
29E
100
AcDbEntity
  8
1
  6
Continuous
 62
     7
370
    30
100
AcDbLine
 10
3156.274066103118
 20
3608.217391304348
 30
0.0
 11
3168.274066103118
 21
3608.217391304348
 31
0.0
  0
LINE
  5
2A3
330
29E
100
AcDbEntity
  8
1
  6
Continuous
 62
     7
370
    30
100
AcDbLine
 10
3168.274066103118
 20
3608.217391304348
 30
0.0
 11
3168.274066103118
 21
3836.217391304348
 31
0.0
  0
LINE
  5
2A4
330
29E
100
AcDbEntity
  8
1
  6
Continuous
 62
     7
370
    30
100
AcDbLine
 10
3168.274066103118
 20
3836.217391304348
 30
0.0
 11
3156.274066103118
 21
3836.217391304348
 31
0.0
  0
ENDBLK
  5
2A0
330
29E
100
AcDbEntity
  8
0
100
AcDbBlockEnd
  0
BLOCK
  5
2A7
330
2A6
100
AcDbEntity
  8
0
100
AcDbBlockBegin
  2
*G52
 70
     1
 71
     0
 10
0.0
 20
0.0
 30
0.0
  3
*G52
  1

  0
LINE
  5
2A9
330
2A6
100
AcDbEntity
  8
1
  6
Continuous
 62
     7
370
    30
100
AcDbLine
 10
3556.274066103119
 20
3836.217391304349
 30
0.0
 11
3556.274066103119
 21
3608.217391304349
 31
0.0
  0
LINE
  5
2AA
330
2A6
100
AcDbEntity
  8
1
  6
Continuous
 62
     7
370
    30
100
AcDbLine
 10
3556.274066103119
 20
3608.217391304349
 30
0.0
 11
3568.274066103119
 21
3608.217391304349
 31
0.0
  0
LINE
  5
2AB
330
2A6
100
AcDbEntity
  8
1
  6
Continuous
 62
     7
370
    30
100
AcDbLine
 10
3568.274066103119
 20
3608.217391304349
 30
0.0
 11
3568.274066103119
 21
3836.217391304349
 31
0.0
  0
LINE
  5
2AC
330
2A6
100
AcDbEntity
  8
1
  6
Continuous
 62
     7
370
    30
100
AcDbLine
 10
3568.274066103119
 20
3836.217391304349
 30
0.0
 11
3556.274066103119
 21
3836.217391304349
 31
0.0
  0
ENDBLK
  5
2A8
330
2A6
100
AcDbEntity
  8
0
100
AcDbBlockEnd
  0
BLOCK
  5
2AF
330
2AE
100
AcDbEntity
  8
0
100
AcDbBlockBegin
  2
*G53
 70
     1
 71
     0
 10
0.0
 20
0.0
 30
0.0
  3
*G53
  1

  0
LINE
  5
2B1
330
2AE
100
AcDbEntity
  8
1
  6
Continuous
 62
     7
370
    30
100
AcDbLine
 10
3930.274066103118
 20
3836.217391304348
 30
0.0
 11
3930.274066103118
 21
3608.217391304348
 31
0.0
  0
LINE
  5
2B2
330
2AE
100
AcDbEntity
  8
1
  6
Continuous
 62
     7
370
    30
100
AcDbLine
 10
3930.274066103118
 20
3608.217391304348
 30
0.0
 11
3942.274066103118
 21
3608.217391304348
 31
0.0
  0
LINE
  5
2B3
330
2AE
100
AcDbEntity
  8
1
  6
Continuous
 62
     7
370
    30
100
AcDbLine
 10
3942.274066103118
 20
3608.217391304348
 30
0.0
 11
3942.274066103118
 21
3836.217391304348
 31
0.0
  0
LINE
  5
2B4
330
2AE
100
AcDbEntity
  8
1
  6
Continuous
 62
     7
370
    30
100
AcDbLine
 10
3942.274066103118
 20
3836.217391304348
 30
0.0
 11
3930.274066103118
 21
3836.217391304348
 31
0.0
  0
ENDBLK
  5
2B0
330
2AE
100
AcDbEntity
  8
0
100
AcDbBlockEnd
  0
BLOCK
  5
2B7
330
2B6
100
AcDbEntity
  8
0
100
AcDbBlockBegin
  2
*G54
 70
     1
 71
     0
 10
0.0
 20
0.0
 30
0.0
  3
*G54
  1

  0
LINE
  5
2B9
330
2B6
100
AcDbEntity
  8
1
  6
Continuous
 62
     7
370
    30
100
AcDbLine
 10
2382.274066103118
 20
3836.217391304348
 30
0.0
 11
2382.274066103118
 21
3608.217391304348
 31
0.0
  0
LINE
  5
2BA
330
2B6
100
AcDbEntity
  8
1
  6
Continuous
 62
     7
370
    30
100
AcDbLine
 10
2382.274066103118
 20
3608.217391304348
 30
0.0
 11
2394.274066103118
 21
3608.217391304348
 31
0.0
  0
LINE
  5
2BB
330
2B6
100
AcDbEntity
  8
1
  6
Continuous
 62
     7
370
    30
100
AcDbLine
 10
2394.274066103118
 20
3608.217391304348
 30
0.0
 11
2394.274066103118
 21
3836.217391304348
 31
0.0
  0
LINE
  5
2BC
330
2B6
100
AcDbEntity
  8
1
  6
Continuous
 62
     7
370
    30
100
AcDbLine
 10
2394.274066103118
 20
3836.217391304348
 30
0.0
 11
2382.274066103118
 21
3836.217391304348
 31
0.0
  0
ENDBLK
  5
2B8
330
2B6
100
AcDbEntity
  8
0
100
AcDbBlockEnd
  0
BLOCK
  5
2BF
330
2BE
100
AcDbEntity
  8
0
100
AcDbBlockBegin
  2
*G55
 70
     1
 71
     0
 10
0.0
 20
0.0
 30
0.0
  3
*G55
  1

  0
LINE
  5
2C1
330
2BE
100
AcDbEntity
  8
1
  6
Continuous
 62
     7
370
    30
100
AcDbLine
 10
2362.274066103118
 20
3608.217391304348
 30
0.0
 11
2362.274066103118
 21
3576.217391304348
 31
0.0
  0
LINE
  5
2C2
330
2BE
100
AcDbEntity
  8
1
  6
Continuous
 62
     7
370
    30
100
AcDbLine
 10
2362.274066103118
 20
3576.217391304348
 30
0.0
 11
3962.274066103118
 21
3576.217391304348
 31
0.0
  0
LINE
  5
2C3
330
2BE
100
AcDbEntity
  8
1
  6
Continuous
 62
     7
370
    30
100
AcDbLine
 10
3962.274066103118
 20
3576.217391304348
 30
0.0
 11
3962.274066103118
 21
3608.217391304348
 31
0.0
  0
LINE
  5
2C4
330
2BE
100
AcDbEntity
  8
1
  6
Continuous
 62
     7
370
    30
100
AcDbLine
 10
3962.274066103118
 20
3608.217391304348
 30
0.0
 11
2362.274066103118
 21
3608.217391304348
 31
0.0
  0
ENDBLK
  5
2C0
330
2BE
100
AcDbEntity
  8
0
100
AcDbBlockEnd
  0
BLOCK
  5
2CD
330
2CC
100
AcDbEntity
  8
0
100
AcDbBlockBegin
  2
Dim14
 70
     0
 71
     0
 10
0.0
 20
0.0
 30
0.0
  3
Dim14
  1

  0
LINE
  5
2CF
330
2CC
100
AcDbEntity
  8
1
  6
Continuous
 62
     7
370
    30
100
AcDbLine
 10
2312.274066103118
 20
3576.217391304349
 30
0.0
 11
2312.274066103118
 21
4436.217391304349
 31
0.0
  0
LINE
  5
2D0
330
2CC
100
AcDbEntity
  8
1
  6
Continuous
 62
     7
370
    30
100
AcDbLine
 10
2272.274066103118
 20
3576.217391304349
 30
0.0
 11
2447.274066103118
 21
3576.217391304348
 31
0.0
  0
LINE
  5
2D1
330
2CC
100
AcDbEntity
  8
1
  6
Continuous
 62
     7
370
    30
100
AcDbLine
 10
2272.274066103118
 20
4436.217391304349
 30
0.0
 11
2447.274066103118
 21
4436.217391304348
 31
0.0
  0
LINE
  5
2D2
330
2CC
100
AcDbEntity
  8
1
  6
Continuous
 62
     7
370
    30
100
AcDbLine
 10
2312.274066103118
 20
3576.217391304349
 30
0.0
 11
2291.568542494917
 21
3653.491457407474
 31
0.0
  0
LINE
  5
2D3
330
2CC
100
AcDbEntity
  8
1
  6
Continuous
 62
     7
370
    30
100
AcDbLine
 10
2312.274066103118
 20
3576.217391304349
 30
0.0
 11
2332.97958971132
 21
3653.491457407474
 31
0.0
  0
LINE
  5
2D4
330
2CC
100
AcDbEntity
  8
1
  6
Continuous
 62
     7
370
    30
100
AcDbLine
 10
2291.568542494917
 20
3653.491457407474
 30
0.0
 11
2332.97958971132
 21
3653.491457407474
 31
0.0
  0
LINE
  5
2D5
330
2CC
100
AcDbEntity
  8
1
  6
Continuous
 62
     7
370
    30
100
AcDbLine
 10
2312.274066103118
 20
3595.53590783013
 30
0.0
 11
2301.921304299018
 21
3634.172940881693
 31
0.0
  0
LINE
  5
2D6
330
2CC
100
AcDbEntity
  8
1
  6
Continuous
 62
     7
370
    30
100
AcDbLine
 10
2312.274066103118
 20
3595.53590783013
 30
0.0
 11
2322.626827907219
 21
3634.172940881693
 31
0.0
  0
LINE
  5
2D7
330
2CC
100
AcDbEntity
  8
1
  6
Continuous
 62
     7
370
    30
100
AcDbLine
 10
2301.921304299018
 20
3634.172940881693
 30
0.0
 11
2322.626827907219
 21
3634.172940881693
 31
0.0
  0
LINE
  5
2D8
330
2CC
100
AcDbEntity
  8
1
  6
Continuous
 62
     7
370
    30
100
AcDbLine
 10
2312.274066103118
 20
4436.217391304349
 30
0.0
 11
2332.97958971132
 21
4358.943325201223
 31
0.0
  0
LINE
  5
2D9
330
2CC
100
AcDbEntity
  8
1
  6
Continuous
 62
     7
370
    30
100
AcDbLine
 10
2312.274066103118
 20
4436.217391304349
 30
0.0
 11
2291.568542494917
 21
4358.943325201223
 31
0.0
  0
LINE
  5
2DA
330
2CC
100
AcDbEntity
  8
1
  6
Continuous
 62
     7
370
    30
100
AcDbLine
 10
2332.97958971132
 20
4358.943325201223
 30
0.0
 11
2291.568542494917
 21
4358.943325201223
 31
0.0
  0
LINE
  5
2DB
330
2CC
100
AcDbEntity
  8
1
  6
Continuous
 62
     7
370
    30
100
AcDbLine
 10
2312.274066103118
 20
4416.898874778568
 30
0.0
 11
2322.626827907219
 21
4378.261841727005
 31
0.0
  0
LINE
  5
2DC
330
2CC
100
AcDbEntity
  8
1
  6
Continuous
 62
     7
370
    30
100
AcDbLine
 10
2312.274066103118
 20
4416.898874778568
 30
0.0
 11
2301.921304299017
 21
4378.261841727005
 31
0.0
  0
LINE
  5
2DD
330
2CC
100
AcDbEntity
  8
1
  6
Continuous
 62
     7
370
    30
100
AcDbLine
 10
2322.626827907219
 20
4378.261841727005
 30
0.0
 11
2301.921304299017
 21
4378.261841727005
 31
0.0
  0
TEXT
  5
2DE
330
2CC
100
AcDbEntity
  8
1
  6
Continuous
 62
     7
370
     9
100
AcDbText
 10
2312.274066103118
 20
3946.217391304349
 30
0.0
 40
80.0
  1
860
 50
89.99999999999991
 41
0.5
 51
14.99999999999999
100
AcDbText
  0
ENDBLK
  5
2CE
330
2CC
100
AcDbEntity
  8
0
100
AcDbBlockEnd
  0
BLOCK
  5
2E1
330
2E0
100
AcDbEntity
  8
0
100
AcDbBlockBegin
  2
Dim15
 70
     0
 71
     0
 10
0.0
 20
0.0
 30
0.0
  3
Dim15
  1

  0
LINE
  5
2E3
330
2E0
100
AcDbEntity
  8
1
  6
Continuous
 62
     7
370
    30
100
AcDbLine
 10
1812.274066103118
 20
4156.217391304349
 30
0.0
 11
1812.274066103118
 21
4456.217391304349
 31
0.0
  0
LINE
  5
2E4
330
2E0
100
AcDbEntity
  8
1
  6
Continuous
 62
     7
370
    30
100
AcDbLine
 10
1772.274066103118
 20
4156.217391304349
 30
0.0
 11
1872.274066103118
 21
4156.217391304348
 31
0.0
  0
LINE
  5
2E5
330
2E0
100
AcDbEntity
  8
1
  6
Continuous
 62
     7
370
    30
100
AcDbLine
 10
1772.274066103118
 20
4456.217391304349
 30
0.0
 11
1872.274066103118
 21
4456.217391304348
 31
0.0
  0
LINE
  5
2E6
330
2E0
100
AcDbEntity
  8
1
  6
Continuous
 62
     7
370
    30
100
AcDbLine
 10
1812.274066103118
 20
4156.217391304349
 30
0.0
 11
1791.568542494917
 21
4233.491457407475
 31
0.0
  0
LINE
  5
2E7
330
2E0
100
AcDbEntity
  8
1
  6
Continuous
 62
     7
370
    30
100
AcDbLine
 10
1812.274066103118
 20
4156.217391304349
 30
0.0
 11
1832.97958971132
 21
4233.491457407475
 31
0.0
  0
LINE
  5
2E8
330
2E0
100
AcDbEntity
  8
1
  6
Continuous
 62
     7
370
    30
100
AcDbLine
 10
1791.568542494917
 20
4233.491457407475
 30
0.0
 11
1832.97958971132
 21
4233.491457407475
 31
0.0
  0
LINE
  5
2E9
330
2E0
100
AcDbEntity
  8
1
  6
Continuous
 62
     7
370
    30
100
AcDbLine
 10
1812.274066103118
 20
4175.53590783013
 30
0.0
 11
1801.921304299018
 21
4214.172940881693
 31
0.0
  0
LINE
  5
2EA
330
2E0
100
AcDbEntity
  8
1
  6
Continuous
 62
     7
370
    30
100
AcDbLine
 10
1812.274066103118
 20
4175.53590783013
 30
0.0
 11
1822.626827907219
 21
4214.172940881693
 31
0.0
  0
LINE
  5
2EB
330
2E0
100
AcDbEntity
  8
1
  6
Continuous
 62
     7
370
    30
100
AcDbLine
 10
1801.921304299018
 20
4214.172940881693
 30
0.0
 11
1822.626827907219
 21
4214.172940881693
 31
0.0
  0
LINE
  5
2EC
330
2E0
100
AcDbEntity
  8
1
  6
Continuous
 62
     7
370
    30
100
AcDbLine
 10
1812.274066103118
 20
4456.217391304349
 30
0.0
 11
1832.97958971132
 21
4378.943325201223
 31
0.0
  0
LINE
  5
2ED
330
2E0
100
AcDbEntity
  8
1
  6
Continuous
 62
     7
370
    30
100
AcDbLine
 10
1812.274066103118
 20
4456.217391304349
 30
0.0
 11
1791.568542494917
 21
4378.943325201223
 31
0.0
  0
LINE
  5
2EE
330
2E0
100
AcDbEntity
  8
1
  6
Continuous
 62
     7
370
    30
100
AcDbLine
 10
1832.97958971132
 20
4378.943325201223
 30
0.0
 11
1791.568542494917
 21
4378.943325201223
 31
0.0
  0
LINE
  5
2EF
330
2E0
100
AcDbEntity
  8
1
  6
Continuous
 62
     7
370
    30
100
AcDbLine
 10
1812.274066103118
 20
4436.898874778568
 30
0.0
 11
1822.626827907219
 21
4398.261841727005
 31
0.0
  0
LINE
  5
2F0
330
2E0
100
AcDbEntity
  8
1
  6
Continuous
 62
     7
370
    30
100
AcDbLine
 10
1812.274066103118
 20
4436.898874778568
 30
0.0
 11
1801.921304299017
 21
4398.261841727005
 31
0.0
  0
LINE
  5
2F1
330
2E0
100
AcDbEntity
  8
1
  6
Continuous
 62
     7
370
    30
100
AcDbLine
 10
1822.626827907219
 20
4398.261841727005
 30
0.0
 11
1801.921304299017
 21
4398.261841727005
 31
0.0
  0
TEXT
  5
2F2
330
2E0
100
AcDbEntity
  8
1
  6
Continuous
 62
     7
370
     9
100
AcDbText
 10
1812.274066103118
 20
4246.217391304349
 30
0.0
 40
80.0
  1
300
 50
89.99999999999991
 41
0.5
 51
14.99999999999999
100
AcDbText
  0
ENDBLK
  5
2E2
330
2E0
100
AcDbEntity
  8
0
100
AcDbBlockEnd
  0
BLOCK
  5
2F5
330
2F4
100
AcDbEntity
  8
0
100
AcDbBlockBegin
  2
Dim16
 70
     0
 71
     0
 10
0.0
 20
0.0
 30
0.0
  3
Dim16
  1

  0
LINE
  5
2F7
330
2F4
100
AcDbEntity
  8
1
  6
Continuous
 62
     7
370
    30
100
AcDbLine
 10
1812.274066103118
 20
3856.21739130435
 30
0.0
 11
1812.274066103118
 21
4156.217391304349
 31
0.0
  0
LINE
  5
2F8
330
2F4
100
AcDbEntity
  8
1
  6
Continuous
 62
     7
370
    30
100
AcDbLine
 10
1772.274066103118
 20
3856.21739130435
 30
0.0
 11
1872.274066103118
 21
3856.217391304349
 31
0.0
  0
LINE
  5
2F9
330
2F4
100
AcDbEntity
  8
1
  6
Continuous
 62
     7
370
    30
100
AcDbLine
 10
1772.274066103118
 20
4156.217391304349
 30
0.0
 11
1872.274066103118
 21
4156.217391304348
 31
0.0
  0
LINE
  5
2FA
330
2F4
100
AcDbEntity
  8
1
  6
Continuous
 62
     7
370
    30
100
AcDbLine
 10
1812.274066103118
 20
3856.21739130435
 30
0.0
 11
1791.568542494917
 21
3933.491457407475
 31
0.0
  0
LINE
  5
2FB
330
2F4
100
AcDbEntity
  8
1
  6
Continuous
 62
     7
370
    30
100
AcDbLine
 10
1812.274066103118
 20
3856.21739130435
 30
0.0
 11
1832.97958971132
 21
3933.491457407475
 31
0.0
  0
LINE
  5
2FC
330
2F4
100
AcDbEntity
  8
1
  6
Continuous
 62
     7
370
    30
100
AcDbLine
 10
1791.568542494917
 20
3933.491457407475
 30
0.0
 11
1832.97958971132
 21
3933.491457407475
 31
0.0
  0
LINE
  5
2FD
330
2F4
100
AcDbEntity
  8
1
  6
Continuous
 62
     7
370
    30
100
AcDbLine
 10
1812.274066103118
 20
3875.535907830131
 30
0.0
 11
1801.921304299018
 21
3914.172940881694
 31
0.0
  0
LINE
  5
2FE
330
2F4
100
AcDbEntity
  8
1
  6
Continuous
 62
     7
370
    30
100
AcDbLine
 10
1812.274066103118
 20
3875.535907830131
 30
0.0
 11
1822.626827907219
 21
3914.172940881694
 31
0.0
  0
LINE
  5
2FF
330
2F4
100
AcDbEntity
  8
1
  6
Continuous
 62
     7
370
    30
100
AcDbLine
 10
1801.921304299018
 20
3914.172940881694
 30
0.0
 11
1822.626827907219
 21
3914.172940881694
 31
0.0
  0
LINE
  5
300
330
2F4
100
AcDbEntity
  8
1
  6
Continuous
 62
     7
370
    30
100
AcDbLine
 10
1812.274066103118
 20
4156.217391304349
 30
0.0
 11
1832.97958971132
 21
4078.943325201223
 31
0.0
  0
LINE
  5
301
330
2F4
100
AcDbEntity
  8
1
  6
Continuous
 62
     7
370
    30
100
AcDbLine
 10
1812.274066103118
 20
4156.217391304349
 30
0.0
 11
1791.568542494917
 21
4078.943325201224
 31
0.0
  0
LINE
  5
302
330
2F4
100
AcDbEntity
  8
1
  6
Continuous
 62
     7
370
    30
100
AcDbLine
 10
1832.97958971132
 20
4078.943325201223
 30
0.0
 11
1791.568542494917
 21
4078.943325201224
 31
0.0
  0
LINE
  5
303
330
2F4
100
AcDbEntity
  8
1
  6
Continuous
 62
     7
370
    30
100
AcDbLine
 10
1812.274066103118
 20
4136.898874778568
 30
0.0
 11
1822.626827907219
 21
4098.261841727005
 31
0.0
  0
LINE
  5
304
330
2F4
100
AcDbEntity
  8
1
  6
Continuous
 62
     7
370
    30
100
AcDbLine
 10
1812.274066103118
 20
4136.898874778568
 30
0.0
 11
1801.921304299017
 21
4098.261841727005
 31
0.0
  0
LINE
  5
305
330
2F4
100
AcDbEntity
  8
1
  6
Continuous
 62
     7
370
    30
100
AcDbLine
 10
1822.626827907219
 20
4098.261841727005
 30
0.0
 11
1801.921304299017
 21
4098.261841727005
 31
0.0
  0
TEXT
  5
306
330
2F4
100
AcDbEntity
  8
1
  6
Continuous
 62
     7
370
     9
100
AcDbText
 10
1812.274066103118
 20
3946.217391304349
 30
0.0
 40
80.0
  1
300
 50
89.99999999999991
 41
0.5
 51
14.99999999999999
100
AcDbText
  0
ENDBLK
  5
2F6
330
2F4
100
AcDbEntity
  8
0
100
AcDbBlockEnd
  0
BLOCK
  5
309
330
308
100
AcDbEntity
  8
0
100
AcDbBlockBegin
  2
Dim17
 70
     0
 71
     0
 10
0.0
 20
0.0
 30
0.0
  3
Dim17
  1

  0
LINE
  5
30B
330
308
100
AcDbEntity
  8
1
  6
Continuous
 62
     7
370
    30
100
AcDbLine
 10
1812.274066103118
 20
3556.217391304349
 30
0.0
 11
1812.274066103118
 21
3856.21739130435
 31
0.0
  0
LINE
  5
30C
330
308
100
AcDbEntity
  8
1
  6
Continuous
 62
     7
370
    30
100
AcDbLine
 10
1772.274066103118
 20
3556.217391304349
 30
0.0
 11
1872.274066103118
 21
3556.217391304348
 31
0.0
  0
LINE
  5
30D
330
308
100
AcDbEntity
  8
1
  6
Continuous
 62
     7
370
    30
100
AcDbLine
 10
1772.274066103118
 20
3856.21739130435
 30
0.0
 11
1872.274066103118
 21
3856.217391304349
 31
0.0
  0
LINE
  5
30E
330
308
100
AcDbEntity
  8
1
  6
Continuous
 62
     7
370
    30
100
AcDbLine
 10
1812.274066103118
 20
3556.217391304349
 30
0.0
 11
1791.568542494917
 21
3633.491457407474
 31
0.0
  0
LINE
  5
30F
330
308
100
AcDbEntity
  8
1
  6
Continuous
 62
     7
370
    30
100
AcDbLine
 10
1812.274066103118
 20
3556.217391304349
 30
0.0
 11
1832.97958971132
 21
3633.491457407474
 31
0.0
  0
LINE
  5
310
330
308
100
AcDbEntity
  8
1
  6
Continuous
 62
     7
370
    30
100
AcDbLine
 10
1791.568542494917
 20
3633.491457407474
 30
0.0
 11
1832.97958971132
 21
3633.491457407474
 31
0.0
  0
LINE
  5
311
330
308
100
AcDbEntity
  8
1
  6
Continuous
 62
     7
370
    30
100
AcDbLine
 10
1812.274066103118
 20
3575.53590783013
 30
0.0
 11
1801.921304299018
 21
3614.172940881693
 31
0.0
  0
LINE
  5
312
330
308
100
AcDbEntity
  8
1
  6
Continuous
 62
     7
370
    30
100
AcDbLine
 10
1812.274066103118
 20
3575.53590783013
 30
0.0
 11
1822.626827907219
 21
3614.172940881693
 31
0.0
  0
LINE
  5
313
330
308
100
AcDbEntity
  8
1
  6
Continuous
 62
     7
370
    30
100
AcDbLine
 10
1801.921304299018
 20
3614.172940881693
 30
0.0
 11
1822.626827907219
 21
3614.172940881693
 31
0.0
  0
LINE
  5
314
330
308
100
AcDbEntity
  8
1
  6
Continuous
 62
     7
370
    30
100
AcDbLine
 10
1812.274066103118
 20
3856.21739130435
 30
0.0
 11
1832.97958971132
 21
3778.943325201224
 31
0.0
  0
LINE
  5
315
330
308
100
AcDbEntity
  8
1
  6
Continuous
 62
     7
370
    30
100
AcDbLine
 10
1812.274066103118
 20
3856.21739130435
 30
0.0
 11
1791.568542494917
 21
3778.943325201225
 31
0.0
  0
LINE
  5
316
330
308
100
AcDbEntity
  8
1
  6
Continuous
 62
     7
370
    30
100
AcDbLine
 10
1832.97958971132
 20
3778.943325201224
 30
0.0
 11
1791.568542494917
 21
3778.943325201225
 31
0.0
  0
LINE
  5
317
330
308
100
AcDbEntity
  8
1
  6
Continuous
 62
     7
370
    30
100
AcDbLine
 10
1812.274066103118
 20
3836.898874778568
 30
0.0
 11
1822.626827907219
 21
3798.261841727006
 31
0.0
  0
LINE
  5
318
330
308
100
AcDbEntity
  8
1
  6
Continuous
 62
     7
370
    30
100
AcDbLine
 10
1812.274066103118
 20
3836.898874778568
 30
0.0
 11
1801.921304299017
 21
3798.261841727006
 31
0.0
  0
LINE
  5
319
330
308
100
AcDbEntity
  8
1
  6
Continuous
 62
     7
370
    30
100
AcDbLine
 10
1822.626827907219
 20
3798.261841727006
 30
0.0
 11
1801.921304299017
 21
3798.261841727006
 31
0.0
  0
TEXT
  5
31A
330
308
100
AcDbEntity
  8
1
  6
Continuous
 62
     7
370
     9
100
AcDbText
 10
1812.274066103118
 20
3646.217391304349
 30
0.0
 40
80.0
  1
300
 50
89.99999999999991
 41
0.5
 51
14.99999999999999
100
AcDbText
  0
ENDBLK
  5
30A
330
308
100
AcDbEntity
  8
0
100
AcDbBlockEnd
  0
BLOCK
  5
31D
330
31C
100
AcDbEntity
  8
0
100
AcDbBlockBegin
  2
*G60
 70
     1
 71
     0
 10
0.0
 20
0.0
 30
0.0
  3
*G60
  1

  0
LINE
  5
31F
330
31C
100
AcDbEntity
  8
1
  6
Continuous
 62
     7
370
    30
100
AcDbLine
 10
1612.274066103118
 20
4856.217391304348
 30
0.0
 11
1612.274066103118
 21
3156.217391304348
 31
0.0
  0
LINE
  5
320
330
31C
100
AcDbEntity
  8
1
  6
Continuous
 62
     7
370
    30
100
AcDbLine
 10
1612.274066103118
 20
3156.217391304348
 30
0.0
 11
1912.274066103118
 21
3156.217391304348
 31
0.0
  0
LINE
  5
321
330
31C
100
AcDbEntity
  8
1
  6
Continuous
 62
     7
370
    30
100
AcDbLine
 10
1912.274066103118
 20
3156.217391304348
 30
0.0
 11
1912.274066103118
 21
4856.217391304348
 31
0.0
  0
LINE
  5
322
330
31C
100
AcDbEntity
  8
1
  6
Continuous
 62
     7
370
    30
100
AcDbLine
 10
1912.274066103118
 20
4856.217391304348
 30
0.0
 11
1612.274066103118
 21
4856.217391304348
 31
0.0
  0
ENDBLK
  5
31E
330
31C
100
AcDbEntity
  8
0
100
AcDbBlockEnd
  0
BLOCK
  5
325
330
324
100
AcDbEntity
  8
0
100
AcDbBlockBegin
  2
*G61
 70
     1
 71
     0
 10
0.0
 20
0.0
 30
0.0
  3
*G61
  1

  0
LINE
  5
327
330
324
100
AcDbEntity
  8
1
  6
Continuous
 62
     7
370
    30
100
AcDbLine
 10
6312.274066103118
 20
4606.217391304348
 30
0.0
 11
6312.274066103118
 21
3406.217391304348
 31
0.0
  0
LINE
  5
328
330
324
100
AcDbEntity
  8
1
  6
Continuous
 62
     7
370
    30
100
AcDbLine
 10
6312.274066103118
 20
3406.217391304348
 30
0.0
 11
6612.274066103118
 21
3406.217391304348
 31
0.0
  0
LINE
  5
329
330
324
100
AcDbEntity
  8
1
  6
Continuous
 62
     7
370
    30
100
AcDbLine
 10
6612.274066103118
 20
3406.217391304348
 30
0.0
 11
6612.274066103118
 21
4606.217391304348
 31
0.0
  0
LINE
  5
32A
330
324
100
AcDbEntity
  8
1
  6
Continuous
 62
     7
370
    30
100
AcDbLine
 10
6612.274066103118
 20
4606.217391304348
 30
0.0
 11
6312.274066103118
 21
4606.217391304348
 31
0.0
  0
ENDBLK
  5
326
330
324
100
AcDbEntity
  8
0
100
AcDbBlockEnd
  0
BLOCK
  5
333
330
332
100
AcDbEntity
  8
0
100
AcDbBlockBegin
  2
Dim18
 70
     0
 71
     0
 10
0.0
 20
0.0
 30
0.0
  3
Dim18
  1

  0
LINE
  5
335
330
332
100
AcDbEntity
  8
1
  6
Continuous
 62
     7
370
     9
100
AcDbLine
 10
1612.274066103116
 20
1020.0
 30
0.0
 11
7288.774066103115
 21
1020.0
 31
0.0
  0
LINE
  5
336
330
332
100
AcDbEntity
  8
1
  6
Continuous
 62
     7
370
     9
100
AcDbLine
 10
1612.274066103116
 20
980.0
 30
0.0
 11
1612.27406610312
 21
1410.0
 31
0.0
  0
LINE
  5
337
330
332
100
AcDbEntity
  8
1
  6
Continuous
 62
     7
370
     9
100
AcDbLine
 10
7288.774066103115
 20
980.0
 30
0.0
 11
7288.77406610312
 21
1478.0
 31
0.0
  0
LINE
  5
338
330
332
100
AcDbEntity
  8
1
  6
Continuous
 62
     7
370
     9
100
AcDbLine
 10
1612.274066103116
 20
1020.0
 30
0.0
 11
1689.548132206241
 21
1040.705523608202
 31
0.0
  0
LINE
  5
339
330
332
100
AcDbEntity
  8
1
  6
Continuous
 62
     7
370
     9
100
AcDbLine
 10
1612.274066103116
 20
1020.0
 30
0.0
 11
1689.548132206241
 21
999.2944763917984
 31
0.0
  0
LINE
  5
33A
330
332
100
AcDbEntity
  8
1
  6
Continuous
 62
     7
370
     9
100
AcDbLine
 10
1689.548132206241
 20
1040.705523608202
 30
0.0
 11
1689.548132206241
 21
999.2944763917984
 31
0.0
  0
LINE
  5
33B
330
332
100
AcDbEntity
  8
1
  6
Continuous
 62
     7
370
     9
100
AcDbLine
 10
1631.592582628897
 20
1020.0
 30
0.0
 11
1670.22961568046
 21
1030.352761804101
 31
0.0
  0
LINE
  5
33C
330
332
100
AcDbEntity
  8
1
  6
Continuous
 62
     7
370
     9
100
AcDbLine
 10
1631.592582628897
 20
1020.0
 30
0.0
 11
1670.22961568046
 21
1009.647238195899
 31
0.0
  0
LINE
  5
33D
330
332
100
AcDbEntity
  8
1
  6
Continuous
 62
     7
370
     9
100
AcDbLine
 10
1670.22961568046
 20
1030.352761804101
 30
0.0
 11
1670.22961568046
 21
1009.647238195899
 31
0.0
  0
LINE
  5
33E
330
332
100
AcDbEntity
  8
1
  6
Continuous
 62
     7
370
     9
100
AcDbLine
 10
7288.774066103115
 20
1020.0
 30
0.0
 11
7211.499999999989
 21
999.2944763917986
 31
0.0
  0
LINE
  5
33F
330
332
100
AcDbEntity
  8
1
  6
Continuous
 62
     7
370
     9
100
AcDbLine
 10
7288.774066103115
 20
1020.0
 30
0.0
 11
7211.499999999989
 21
1040.705523608202
 31
0.0
  0
LINE
  5
340
330
332
100
AcDbEntity
  8
1
  6
Continuous
 62
     7
370
     9
100
AcDbLine
 10
7211.499999999989
 20
999.2944763917986
 30
0.0
 11
7211.499999999989
 21
1040.705523608202
 31
0.0
  0
LINE
  5
341
330
332
100
AcDbEntity
  8
1
  6
Continuous
 62
     7
370
     9
100
AcDbLine
 10
7269.455549577334
 20
1020.0
 30
0.0
 11
7230.818516525771
 21
1009.647238195899
 31
0.0
  0
LINE
  5
342
330
332
100
AcDbEntity
  8
1
  6
Continuous
 62
     7
370
     9
100
AcDbLine
 10
7269.455549577334
 20
1020.0
 30
0.0
 11
7230.818516525771
 21
1030.352761804101
 31
0.0
  0
LINE
  5
343
330
332
100
AcDbEntity
  8
1
  6
Continuous
 62
     7
370
     9
100
AcDbLine
 10
7230.818516525771
 20
1009.647238195899
 30
0.0
 11
7230.818516525771
 21
1030.352761804101
 31
0.0
  0
TEXT
  5
344
330
332
100
AcDbEntity
  8
1
  6
Continuous
 62
     7
370
     9
100
AcDbText
 10
4250.524066103115
 20
1020.0
 30
0.0
 40
100.0
  1
5676.5
 41
0.7
100
AcDbText
  0
ENDBLK
  5
334
330
332
100
AcDbEntity
  8
0
100
AcDbBlockEnd
  0
BLOCK
  5
347
330
346
100
AcDbEntity
  8
0
100
AcDbBlockBegin
  2
Dim19
 70
     0
 71
     0
 10
0.0
 20
0.0
 30
0.0
  3
Dim19
  1

  0
LINE
  5
349
330
346
100
AcDbEntity
  8
1
  6
Continuous
 62
     7
370
    30
100
AcDbLine
 10
6287.27406610312
 20
1580.0
 30
0.0
 11
6287.27406610312
 21
1218.0
 31
0.0
  0
LINE
  5
34A
330
346
100
AcDbEntity
  8
1
  6
Continuous
 62
     7
370
    30
100
AcDbLine
 10
6247.27406610312
 20
1580.0
 30
0.0
 11
6507.27406610312
 21
1580.0
 31
0.0
  0
LINE
  5
34B
330
346
100
AcDbEntity
  8
1
  6
Continuous
 62
     7
370
    30
100
AcDbLine
 10
6247.27406610312
 20
1218.0
 30
0.0
 11
6508.77406610312
 21
1218.0
 31
0.0
  0
LINE
  5
34C
330
346
100
AcDbEntity
  8
1
  6
Continuous
 62
     7
370
    30
100
AcDbLine
 10
6287.27406610312
 20
1580.0
 30
0.0
 11
6307.979589711322
 21
1502.725933896874
 31
0.0
  0
LINE
  5
34D
330
346
100
AcDbEntity
  8
1
  6
Continuous
 62
     7
370
    30
100
AcDbLine
 10
6287.27406610312
 20
1580.0
 30
0.0
 11
6266.568542494919
 21
1502.725933896874
 31
0.0
  0
LINE
  5
34E
330
346
100
AcDbEntity
  8
1
  6
Continuous
 62
     7
370
    30
100
AcDbLine
 10
6307.979589711322
 20
1502.725933896874
 30
0.0
 11
6266.568542494919
 21
1502.725933896874
 31
0.0
  0
LINE
  5
34F
330
346
100
AcDbEntity
  8
1
  6
Continuous
 62
     7
370
    30
100
AcDbLine
 10
6287.27406610312
 20
1560.681483474218
 30
0.0
 11
6297.626827907221
 21
1522.044450422656
 31
0.0
  0
LINE
  5
350
330
346
100
AcDbEntity
  8
1
  6
Continuous
 62
     7
370
    30
100
AcDbLine
 10
6287.27406610312
 20
1560.681483474218
 30
0.0
 11
6276.92130429902
 21
1522.044450422656
 31
0.0
  0
LINE
  5
351
330
346
100
AcDbEntity
  8
1
  6
Continuous
 62
     7
370
    30
100
AcDbLine
 10
6297.626827907221
 20
1522.044450422656
 30
0.0
 11
6276.92130429902
 21
1522.044450422656
 31
0.0
  0
LINE
  5
352
330
346
100
AcDbEntity
  8
1
  6
Continuous
 62
     7
370
    30
100
AcDbLine
 10
6287.27406610312
 20
1218.0
 30
0.0
 11
6266.568542494919
 21
1295.274066103125
 31
0.0
  0
LINE
  5
353
330
346
100
AcDbEntity
  8
1
  6
Continuous
 62
     7
370
    30
100
AcDbLine
 10
6287.27406610312
 20
1218.0
 30
0.0
 11
6307.979589711322
 21
1295.274066103125
 31
0.0
  0
LINE
  5
354
330
346
100
AcDbEntity
  8
1
  6
Continuous
 62
     7
370
    30
100
AcDbLine
 10
6266.568542494919
 20
1295.274066103125
 30
0.0
 11
6307.979589711322
 21
1295.274066103125
 31
0.0
  0
LINE
  5
355
330
346
100
AcDbEntity
  8
1
  6
Continuous
 62
     7
370
    30
100
AcDbLine
 10
6287.27406610312
 20
1237.318516525781
 30
0.0
 11
6276.92130429902
 21
1275.955549577344
 31
0.0
  0
LINE
  5
356
330
346
100
AcDbEntity
  8
1
  6
Continuous
 62
     7
370
    30
100
AcDbLine
 10
6287.27406610312
 20
1237.318516525781
 30
0.0
 11
6297.626827907221
 21
1275.955549577344
 31
0.0
  0
LINE
  5
357
330
346
100
AcDbEntity
  8
1
  6
Continuous
 62
     7
370
    30
100
AcDbLine
 10
6276.92130429902
 20
1275.955549577344
 30
0.0
 11
6297.626827907221
 21
1275.955549577344
 31
0.0
  0
TEXT
  5
358
330
346
100
AcDbEntity
  8
1
  6
Continuous
 62
     7
370
     9
100
AcDbText
 10
6287.27406610312
 20
1304.0
 30
0.0
 40
100.0
  1
362
 50
89.9999999999999
 41
0.7
100
AcDbText
  0
ENDBLK
  5
348
330
346
100
AcDbEntity
  8
0
100
AcDbBlockEnd
  0
BLOCK
  5
35B
330
35A
100
AcDbEntity
  8
0
100
AcDbBlockBegin
  2
Dim20
 70
     0
 71
     0
 10
0.0
 20
0.0
 30
0.0
  3
Dim20
  1

  0
LINE
  5
35D
330
35A
100
AcDbEntity
  8
1
  6
Continuous
 62
     7
370
     9
100
AcDbLine
 10
1337.274066103121
 20
1879.999999999999
 30
0.0
 11
1337.274066103121
 21
1379.999999999999
 31
0.0
  0
LINE
  5
35E
330
35A
100
AcDbEntity
  8
1
  6
Continuous
 62
     7
370
     9
100
AcDbLine
 10
1297.274066103121
 20
1879.999999999999
 30
0.0
 11
1547.274066103121
 21
1880.0
 31
0.0
  0
LINE
  5
35F
330
35A
100
AcDbEntity
  8
1
  6
Continuous
 62
     7
370
     9
100
AcDbLine
 10
1297.274066103121
 20
1379.999999999998
 30
0.0
 11
1572.274066103121
 21
1380.0
 31
0.0
  0
LINE
  5
360
330
35A
100
AcDbEntity
  8
1
  6
Continuous
 62
     7
370
     9
100
AcDbLine
 10
1337.274066103121
 20
1879.999999999999
 30
0.0
 11
1347.626827907222
 21
1841.362966948436
 31
0.0
  0
LINE
  5
361
330
35A
100
AcDbEntity
  8
1
  6
Continuous
 62
     7
370
     9
100
AcDbLine
 10
1337.274066103121
 20
1879.999999999999
 30
0.0
 11
1326.92130429902
 21
1841.362966948436
 31
0.0
  0
LINE
  5
362
330
35A
100
AcDbEntity
  8
1
  6
Continuous
 62
     7
370
     9
100
AcDbLine
 10
1347.626827907222
 20
1841.362966948436
 30
0.0
 11
1326.92130429902
 21
1841.362966948436
 31
0.0
  0
LINE
  5
363
330
35A
100
AcDbEntity
  8
1
  6
Continuous
 62
     7
370
     9
100
AcDbLine
 10
1337.274066103121
 20
1870.340741737108
 30
0.0
 11
1342.450447005171
 21
1851.022225211327
 31
0.0
  0
LINE
  5
364
330
35A
100
AcDbEntity
  8
1
  6
Continuous
 62
     7
370
     9
100
AcDbLine
 10
1337.274066103121
 20
1870.340741737108
 30
0.0
 11
1332.09768520107
 21
1851.022225211327
 31
0.0
  0
LINE
  5
365
330
35A
100
AcDbEntity
  8
1
  6
Continuous
 62
     7
370
     9
100
AcDbLine
 10
1342.450447005171
 20
1851.022225211327
 30
0.0
 11
1332.09768520107
 21
1851.022225211327
 31
0.0
  0
LINE
  5
366
330
35A
100
AcDbEntity
  8
1
  6
Continuous
 62
     7
370
     9
100
AcDbLine
 10
1337.274066103121
 20
1379.999999999999
 30
0.0
 11
1326.92130429902
 21
1418.637033051562
 31
0.0
  0
LINE
  5
367
330
35A
100
AcDbEntity
  8
1
  6
Continuous
 62
     7
370
     9
100
AcDbLine
 10
1337.274066103121
 20
1379.999999999999
 30
0.0
 11
1347.626827907222
 21
1418.637033051561
 31
0.0
  0
LINE
  5
368
330
35A
100
AcDbEntity
  8
1
  6
Continuous
 62
     7
370
     9
100
AcDbLine
 10
1326.92130429902
 20
1418.637033051562
 30
0.0
 11
1347.626827907222
 21
1418.637033051561
 31
0.0
  0
LINE
  5
369
330
35A
100
AcDbEntity
  8
1
  6
Continuous
 62
     7
370
     9
100
AcDbLine
 10
1337.274066103121
 20
1389.659258262889
 30
0.0
 11
1332.09768520107
 21
1408.977774788671
 31
0.0
  0
LINE
  5
36A
330
35A
100
AcDbEntity
  8
1
  6
Continuous
 62
     7
370
     9
100
AcDbLine
 10
1337.274066103121
 20
1389.659258262889
 30
0.0
 11
1342.450447005171
 21
1408.977774788671
 31
0.0
  0
LINE
  5
36B
330
35A
100
AcDbEntity
  8
1
  6
Continuous
 62
     7
370
     9
100
AcDbLine
 10
1332.09768520107
 20
1408.977774788671
 30
0.0
 11
1342.450447005171
 21
1408.977774788671
 31
0.0
  0
TEXT
  5
36C
330
35A
100
AcDbEntity
  8
1
  6
Continuous
 62
     7
370
     9
100
AcDbText
 10
1337.27406610312
 20
1534.999999999999
 30
0.0
 40
100.0
  1
500
 50
89.9999999999999
 41
0.7
100
AcDbText
  0
ENDBLK
  5
35C
330
35A
100
AcDbEntity
  8
0
100
AcDbBlockEnd
  0
BLOCK
  5
36F
330
36E
100
AcDbEntity
  8
0
100
AcDbBlockBegin
  2
Dim21
 70
     0
 71
     0
 10
0.0
 20
0.0
 30
0.0
  3
Dim21
  1

  0
LINE
  5
371
330
36E
100
AcDbEntity
  8
1
  6
Continuous
 62
     7
370
     9
100
AcDbLine
 10
1237.274066103121
 20
1115.000000000003
 30
0.0
 11
1237.274066103121
 21
1880.000000000001
 31
0.0
  0
LINE
  5
372
330
36E
100
AcDbEntity
  8
1
  6
Continuous
 62
     7
370
     9
100
AcDbLine
 10
1197.274066103121
 20
1115.000000000003
 30
0.0
 11
2244.774066103121
 21
1115.0
 31
0.0
  0
LINE
  5
373
330
36E
100
AcDbEntity
  8
1
  6
Continuous
 62
     7
370
     9
100
AcDbLine
 10
1197.274066103121
 20
1880.000000000001
 30
0.0
 11
1717.274066103121
 21
1880.0
 31
0.0
  0
LINE
  5
374
330
36E
100
AcDbEntity
  8
1
  6
Continuous
 62
     7
370
     9
100
AcDbLine
 10
1237.274066103121
 20
1115.000000000003
 30
0.0
 11
1226.92130429902
 21
1153.637033051566
 31
0.0
  0
LINE
  5
375
330
36E
100
AcDbEntity
  8
1
  6
Continuous
 62
     7
370
     9
100
AcDbLine
 10
1237.274066103121
 20
1115.000000000003
 30
0.0
 11
1247.626827907222
 21
1153.637033051566
 31
0.0
  0
LINE
  5
376
330
36E
100
AcDbEntity
  8
1
  6
Continuous
 62
     7
370
     9
100
AcDbLine
 10
1226.92130429902
 20
1153.637033051566
 30
0.0
 11
1247.626827907222
 21
1153.637033051566
 31
0.0
  0
LINE
  5
377
330
36E
100
AcDbEntity
  8
1
  6
Continuous
 62
     7
370
     9
100
AcDbLine
 10
1237.274066103121
 20
1124.659258262894
 30
0.0
 11
1232.09768520107
 21
1143.977774788675
 31
0.0
  0
LINE
  5
378
330
36E
100
AcDbEntity
  8
1
  6
Continuous
 62
     7
370
     9
100
AcDbLine
 10
1237.274066103121
 20
1124.659258262894
 30
0.0
 11
1242.450447005171
 21
1143.977774788675
 31
0.0
  0
LINE
  5
379
330
36E
100
AcDbEntity
  8
1
  6
Continuous
 62
     7
370
     9
100
AcDbLine
 10
1232.09768520107
 20
1143.977774788675
 30
0.0
 11
1242.450447005171
 21
1143.977774788675
 31
0.0
  0
LINE
  5
37A
330
36E
100
AcDbEntity
  8
1
  6
Continuous
 62
     7
370
     9
100
AcDbLine
 10
1237.274066103121
 20
1880.000000000001
 30
0.0
 11
1247.626827907221
 21
1841.362966948438
 31
0.0
  0
LINE
  5
37B
330
36E
100
AcDbEntity
  8
1
  6
Continuous
 62
     7
370
     9
100
AcDbLine
 10
1237.274066103121
 20
1880.000000000001
 30
0.0
 11
1226.92130429902
 21
1841.362966948439
 31
0.0
  0
LINE
  5
37C
330
36E
100
AcDbEntity
  8
1
  6
Continuous
 62
     7
370
     9
100
AcDbLine
 10
1247.626827907221
 20
1841.362966948438
 30
0.0
 11
1226.92130429902
 21
1841.362966948439
 31
0.0
  0
LINE
  5
37D
330
36E
100
AcDbEntity
  8
1
  6
Continuous
 62
     7
370
     9
100
AcDbLine
 10
1237.274066103121
 20
1870.340741737111
 30
0.0
 11
1242.450447005171
 21
1851.022225211329
 31
0.0
  0
LINE
  5
37E
330
36E
100
AcDbEntity
  8
1
  6
Continuous
 62
     7
370
     9
100
AcDbLine
 10
1237.274066103121
 20
1870.340741737111
 30
0.0
 11
1232.09768520107
 21
1851.022225211329
 31
0.0
  0
LINE
  5
37F
330
36E
100
AcDbEntity
  8
1
  6
Continuous
 62
     7
370
     9
100
AcDbLine
 10
1242.450447005171
 20
1851.022225211329
 30
0.0
 11
1232.09768520107
 21
1851.022225211329
 31
0.0
  0
TEXT
  5
380
330
36E
100
AcDbEntity
  8
1
  6
Continuous
 62
     7
370
     9
100
AcDbText
 10
1237.274066103121
 20
1402.500000000002
 30
0.0
 40
100.0
  1
765
 50
89.99999999999991
 41
0.7
100
AcDbText
  0
ENDBLK
  5
370
330
36E
100
AcDbEntity
  8
0
100
AcDbBlockEnd
  0
BLOCK
  5
384
330
383
100
AcDbEntity
  8
0
100
AcDbBlockBegin
  2
Dim22
 70
     0
 71
     0
 10
0.0
 20
0.0
 30
0.0
  3
Dim22
  1

  0
LINE
  5
386
330
383
100
AcDbEntity
  8
1
  6
Continuous
 62
     7
370
     9
100
AcDbLine
 10
1497.27406610312
 20
1280.0
 30
0.0
 11
1827.274066103121
 21
1280.0
 31
0.0
  0
LINE
  5
387
330
383
100
AcDbEntity
  8
1
  6
Continuous
 62
     7
370
     9
100
AcDbLine
 10
1537.27406610312
 20
1240.0
 30
0.0
 11
1537.274066103121
 21
1410.0
 31
0.0
  0
LINE
  5
388
330
383
100
AcDbEntity
  8
1
  6
Continuous
 62
     7
370
     9
100
AcDbLine
 10
1612.27406610312
 20
1240.0
 30
0.0
 11
1612.274066103121
 21
1410.0
 31
0.0
  0
LINE
  5
389
330
383
100
AcDbEntity
  8
1
  6
Continuous
 62
     7
370
     9
100
AcDbLine
 10
1537.27406610312
 20
1280.0
 30
0.0
 11
1498.637033051557
 21
1269.647238195899
 31
0.0
  0
LINE
  5
38A
330
383
100
AcDbEntity
  8
1
  6
Continuous
 62
     7
370
     9
100
AcDbLine
 10
1537.27406610312
 20
1280.0
 30
0.0
 11
1498.637033051557
 21
1290.352761804101
 31
0.0
  0
LINE
  5
38B
330
383
100
AcDbEntity
  8
1
  6
Continuous
 62
     7
370
     9
100
AcDbLine
 10
1498.637033051557
 20
1269.647238195899
 30
0.0
 11
1498.637033051557
 21
1290.352761804101
 31
0.0
  0
LINE
  5
38C
330
383
100
AcDbEntity
  8
1
  6
Continuous
 62
     7
370
     9
100
AcDbLine
 10
1527.614807840229
 20
1280.0
 30
0.0
 11
1508.296291314448
 21
1274.823619097949
 31
0.0
  0
LINE
  5
38D
330
383
100
AcDbEntity
  8
1
  6
Continuous
 62
     7
370
     9
100
AcDbLine
 10
1527.614807840229
 20
1280.0
 30
0.0
 11
1508.296291314448
 21
1285.17638090205
 31
0.0
  0
LINE
  5
38E
330
383
100
AcDbEntity
  8
1
  6
Continuous
 62
     7
370
     9
100
AcDbLine
 10
1508.296291314448
 20
1274.823619097949
 30
0.0
 11
1508.296291314448
 21
1285.17638090205
 31
0.0
  0
LINE
  5
38F
330
383
100
AcDbEntity
  8
1
  6
Continuous
 62
     7
370
     9
100
AcDbLine
 10
1612.27406610312
 20
1280.0
 30
0.0
 11
1650.911099154683
 21
1290.352761804101
 31
0.0
  0
LINE
  5
390
330
383
100
AcDbEntity
  8
1
  6
Continuous
 62
     7
370
     9
100
AcDbLine
 10
1612.27406610312
 20
1280.0
 30
0.0
 11
1650.911099154683
 21
1269.647238195899
 31
0.0
  0
LINE
  5
391
330
383
100
AcDbEntity
  8
1
  6
Continuous
 62
     7
370
     9
100
AcDbLine
 10
1650.911099154683
 20
1290.352761804101
 30
0.0
 11
1650.911099154683
 21
1269.647238195899
 31
0.0
  0
LINE
  5
392
330
383
100
AcDbEntity
  8
1
  6
Continuous
 62
     7
370
     9
100
AcDbLine
 10
1621.933324366011
 20
1280.0
 30
0.0
 11
1641.251840891792
 21
1285.17638090205
 31
0.0
  0
LINE
  5
393
330
383
100
AcDbEntity
  8
1
  6
Continuous
 62
     7
370
     9
100
AcDbLine
 10
1621.933324366011
 20
1280.0
 30
0.0
 11
1641.251840891792
 21
1274.823619097949
 31
0.0
  0
LINE
  5
394
330
383
100
AcDbEntity
  8
1
  6
Continuous
 62
     7
370
     9
100
AcDbLine
 10
1641.251840891792
 20
1285.17638090205
 30
0.0
 11
1641.251840891792
 21
1274.823619097949
 31
0.0
  0
TEXT
  5
395
330
383
100
AcDbEntity
  8
1
  6
Continuous
 62
     7
370
     9
100
AcDbText
 10
1677.274066103121
 20
1280.0
 30
0.0
 40
100.0
  1
75
 41
0.7
100
AcDbText
  0
ENDBLK
  5
385
330
383
100
AcDbEntity
  8
0
100
AcDbBlockEnd
  0
BLOCK
  5
398
330
397
100
AcDbEntity
  8
0
100
AcDbBlockBegin
  2
Dim23
 70
     0
 71
     0
 10
0.0
 20
0.0
 30
0.0
  3
Dim23
  1

  0
LINE
  5
39A
330
397
100
AcDbEntity
  8
1
  6
Continuous
 62
     7
370
     9
100
AcDbLine
 10
1437.274066103121
 20
1340.0
 30
0.0
 11
1437.274066103121
 21
1646.687806994707
 31
0.0
  0
LINE
  5
39B
330
397
100
AcDbEntity
  8
1
  6
Continuous
 62
     7
370
     9
100
AcDbLine
 10
1397.274066103121
 20
1380.0
 30
0.0
 11
1572.274066103121
 21
1380.0
 31
0.0
  0
LINE
  5
39C
330
397
100
AcDbEntity
  8
1
  6
Continuous
 62
     7
370
     9
100
AcDbLine
 10
1397.274066103121
 20
1450.0
 30
0.0
 11
1572.274066103121
 21
1450.0
 31
0.0
  0
LINE
  5
39D
330
397
100
AcDbEntity
  8
1
  6
Continuous
 62
     7
370
     9
100
AcDbLine
 10
1437.274066103121
 20
1380.0
 30
0.0
 11
1447.626827907221
 21
1341.362966948437
 31
0.0
  0
LINE
  5
39E
330
397
100
AcDbEntity
  8
1
  6
Continuous
 62
     7
370
     9
100
AcDbLine
 10
1437.274066103121
 20
1380.0
 30
0.0
 11
1426.92130429902
 21
1341.362966948438
 31
0.0
  0
LINE
  5
39F
330
397
100
AcDbEntity
  8
1
  6
Continuous
 62
     7
370
     9
100
AcDbLine
 10
1447.626827907221
 20
1341.362966948437
 30
0.0
 11
1426.92130429902
 21
1341.362966948438
 31
0.0
  0
LINE
  5
3A0
330
397
100
AcDbEntity
  8
1
  6
Continuous
 62
     7
370
     9
100
AcDbLine
 10
1437.274066103121
 20
1370.34074173711
 30
0.0
 11
1442.450447005171
 21
1351.022225211328
 31
0.0
  0
LINE
  5
3A1
330
397
100
AcDbEntity
  8
1
  6
Continuous
 62
     7
370
     9
100
AcDbLine
 10
1437.274066103121
 20
1370.34074173711
 30
0.0
 11
1432.09768520107
 21
1351.022225211328
 31
0.0
  0
LINE
  5
3A2
330
397
100
AcDbEntity
  8
1
  6
Continuous
 62
     7
370
     9
100
AcDbLine
 10
1442.450447005171
 20
1351.022225211328
 30
0.0
 11
1432.09768520107
 21
1351.022225211328
 31
0.0
  0
LINE
  5
3A3
330
397
100
AcDbEntity
  8
1
  6
Continuous
 62
     7
370
     9
100
AcDbLine
 10
1437.274066103121
 20
1450.0
 30
0.0
 11
1426.92130429902
 21
1488.637033051563
 31
0.0
  0
LINE
  5
3A4
330
397
100
AcDbEntity
  8
1
  6
Continuous
 62
     7
370
     9
100
AcDbLine
 10
1437.274066103121
 20
1450.0
 30
0.0
 11
1447.626827907222
 21
1488.637033051563
 31
0.0
  0
LINE
  5
3A5
330
397
100
AcDbEntity
  8
1
  6
Continuous
 62
     7
370
     9
100
AcDbLine
 10
1426.92130429902
 20
1488.637033051563
 30
0.0
 11
1447.626827907222
 21
1488.637033051563
 31
0.0
  0
LINE
  5
3A6
330
397
100
AcDbEntity
  8
1
  6
Continuous
 62
     7
370
     9
100
AcDbLine
 10
1437.274066103121
 20
1459.659258262891
 30
0.0
 11
1432.09768520107
 21
1478.977774788672
 31
0.0
  0
LINE
  5
3A7
330
397
100
AcDbEntity
  8
1
  6
Continuous
 62
     7
370
     9
100
AcDbLine
 10
1437.274066103121
 20
1459.659258262891
 30
0.0
 11
1442.450447005171
 21
1478.977774788672
 31
0.0
  0
LINE
  5
3A8
330
397
100
AcDbEntity
  8
1
  6
Continuous
 62
     7
370
     9
100
AcDbLine
 10
1432.09768520107
 20
1478.977774788672
 30
0.0
 11
1442.450447005171
 21
1478.977774788672
 31
0.0
  0
TEXT
  5
3A9
330
397
100
AcDbEntity
  8
1
  6
Continuous
 62
     7
370
     9
100
AcDbText
 10
1437.274066103121
 20
1496.687806994707
 30
0.0
 40
100.0
  1
70
 50
89.99999999999991
 41
0.7
100
AcDbText
  0
ENDBLK
  5
399
330
397
100
AcDbEntity
  8
0
100
AcDbBlockEnd
  0
BLOCK
  5
3AC
330
3AB
100
AcDbEntity
  8
0
100
AcDbBlockBegin
  2
Dim24
 70
     0
 71
     0
 10
0.0
 20
0.0
 30
0.0
  3
Dim24
  1

  0
LINE
  5
3AE
330
3AB
100
AcDbEntity
  8
1
  6
Continuous
 62
     7
370
     9
100
AcDbLine
 10
1572.27406610312
 20
1180.0
 30
0.0
 11
1988.413225465555
 21
1180.0
 31
0.0
  0
LINE
  5
3AF
330
3AB
100
AcDbEntity
  8
1
  6
Continuous
 62
     7
370
     9
100
AcDbLine
 10
1612.27406610312
 20
1140.0
 30
0.0
 11
1612.274066103121
 21
1410.0
 31
0.0
  0
LINE
  5
3B0
330
3AB
100
AcDbEntity
  8
1
  6
Continuous
 62
     7
370
     9
100
AcDbLine
 10
1737.27406610312
 20
1140.0
 30
0.0
 11
1737.274066103121
 21
1410.0
 31
0.0
  0
LINE
  5
3B1
330
3AB
100
AcDbEntity
  8
1
  6
Continuous
 62
     7
370
     9
100
AcDbLine
 10
1612.27406610312
 20
1180.0
 30
0.0
 11
1573.637033051557
 21
1169.647238195899
 31
0.0
  0
LINE
  5
3B2
330
3AB
100
AcDbEntity
  8
1
  6
Continuous
 62
     7
370
     9
100
AcDbLine
 10
1612.27406610312
 20
1180.0
 30
0.0
 11
1573.637033051558
 21
1190.352761804101
 31
0.0
  0
LINE
  5
3B3
330
3AB
100
AcDbEntity
  8
1
  6
Continuous
 62
     7
370
     9
100
AcDbLine
 10
1573.637033051557
 20
1169.647238195899
 30
0.0
 11
1573.637033051558
 21
1190.352761804101
 31
0.0
  0
LINE
  5
3B4
330
3AB
100
AcDbEntity
  8
1
  6
Continuous
 62
     7
370
     9
100
AcDbLine
 10
1602.61480784023
 20
1180.0
 30
0.0
 11
1583.296291314448
 21
1174.823619097949
 31
0.0
  0
LINE
  5
3B5
330
3AB
100
AcDbEntity
  8
1
  6
Continuous
 62
     7
370
     9
100
AcDbLine
 10
1602.61480784023
 20
1180.0
 30
0.0
 11
1583.296291314448
 21
1185.17638090205
 31
0.0
  0
LINE
  5
3B6
330
3AB
100
AcDbEntity
  8
1
  6
Continuous
 62
     7
370
     9
100
AcDbLine
 10
1583.296291314448
 20
1174.823619097949
 30
0.0
 11
1583.296291314448
 21
1185.17638090205
 31
0.0
  0
LINE
  5
3B7
330
3AB
100
AcDbEntity
  8
1
  6
Continuous
 62
     7
370
     9
100
AcDbLine
 10
1737.27406610312
 20
1180.0
 30
0.0
 11
1775.911099154683
 21
1190.352761804101
 31
0.0
  0
LINE
  5
3B8
330
3AB
100
AcDbEntity
  8
1
  6
Continuous
 62
     7
370
     9
100
AcDbLine
 10
1737.27406610312
 20
1180.0
 30
0.0
 11
1775.911099154683
 21
1169.647238195899
 31
0.0
  0
LINE
  5
3B9
330
3AB
100
AcDbEntity
  8
1
  6
Continuous
 62
     7
370
     9
100
AcDbLine
 10
1775.911099154683
 20
1190.352761804101
 30
0.0
 11
1775.911099154683
 21
1169.647238195899
 31
0.0
  0
LINE
  5
3BA
330
3AB
100
AcDbEntity
  8
1
  6
Continuous
 62
     7
370
     9
100
AcDbLine
 10
1746.933324366011
 20
1180.0
 30
0.0
 11
1766.251840891792
 21
1185.17638090205
 31
0.0
  0
LINE
  5
3BB
330
3AB
100
AcDbEntity
  8
1
  6
Continuous
 62
     7
370
     9
100
AcDbLine
 10
1746.933324366011
 20
1180.0
 30
0.0
 11
1766.251840891792
 21
1174.823619097949
 31
0.0
  0
LINE
  5
3BC
330
3AB
100
AcDbEntity
  8
1
  6
Continuous
 62
     7
370
     9
100
AcDbLine
 10
1766.251840891792
 20
1185.17638090205
 30
0.0
 11
1766.251840891792
 21
1174.823619097949
 31
0.0
  0
TEXT
  5
3BD
330
3AB
100
AcDbEntity
  8
1
  6
Continuous
 62
     7
370
     9
100
AcDbText
 10
1766.746558798889
 20
1180.0
 30
0.0
 40
100.0
  1
125
 41
0.7
100
AcDbText
  0
ENDBLK
  5
3AD
330
3AB
100
AcDbEntity
  8
0
100
AcDbBlockEnd
  0
BLOCK
  5
3C0
330
3BF
100
AcDbEntity
  8
0
100
AcDbBlockBegin
  2
Dim25
 70
     0
 71
     0
 10
0.0
 20
0.0
 30
0.0
  3
Dim25
  1

  0
LINE
  5
3C2
330
3BF
100
AcDbEntity
  8
1
  6
Continuous
 62
     7
370
     9
100
AcDbLine
 10
1612.274066103122
 20
2130.0
 30
0.0
 11
2437.274066103121
 21
2130.0
 31
0.0
  0
LINE
  5
3C3
330
3BF
100
AcDbEntity
  8
1
  6
Continuous
 62
     7
370
     9
100
AcDbLine
 10
1612.274066103122
 20
2170.0
 30
0.0
 11
1612.274066103121
 21
1490.0
 31
0.0
  0
LINE
  5
3C4
330
3BF
100
AcDbEntity
  8
1
  6
Continuous
 62
     7
370
     9
100
AcDbLine
 10
2437.274066103121
 20
2170.0
 30
0.0
 11
2437.274066103121
 21
1995.0
 31
0.0
  0
LINE
  5
3C5
330
3BF
100
AcDbEntity
  8
1
  6
Continuous
 62
     7
370
     9
100
AcDbLine
 10
1612.274066103122
 20
2130.0
 30
0.0
 11
1650.911099154684
 21
2140.352761804101
 31
0.0
  0
LINE
  5
3C6
330
3BF
100
AcDbEntity
  8
1
  6
Continuous
 62
     7
370
     9
100
AcDbLine
 10
1612.274066103122
 20
2130.0
 30
0.0
 11
1650.911099154684
 21
2119.647238195899
 31
0.0
  0
LINE
  5
3C7
330
3BF
100
AcDbEntity
  8
1
  6
Continuous
 62
     7
370
     9
100
AcDbLine
 10
1650.911099154684
 20
2140.352761804101
 30
0.0
 11
1650.911099154684
 21
2119.647238195899
 31
0.0
  0
LINE
  5
3C8
330
3BF
100
AcDbEntity
  8
1
  6
Continuous
 62
     7
370
     9
100
AcDbLine
 10
1621.933324366012
 20
2130.0
 30
0.0
 11
1641.251840891794
 21
2135.17638090205
 31
0.0
  0
LINE
  5
3C9
330
3BF
100
AcDbEntity
  8
1
  6
Continuous
 62
     7
370
     9
100
AcDbLine
 10
1621.933324366012
 20
2130.0
 30
0.0
 11
1641.251840891794
 21
2124.82361909795
 31
0.0
  0
LINE
  5
3CA
330
3BF
100
AcDbEntity
  8
1
  6
Continuous
 62
     7
370
     9
100
AcDbLine
 10
1641.251840891794
 20
2135.17638090205
 30
0.0
 11
1641.251840891794
 21
2124.82361909795
 31
0.0
  0
LINE
  5
3CB
330
3BF
100
AcDbEntity
  8
1
  6
Continuous
 62
     7
370
     9
100
AcDbLine
 10
2437.274066103121
 20
2130.0
 30
0.0
 11
2398.637033051558
 21
2119.647238195899
 31
0.0
  0
LINE
  5
3CC
330
3BF
100
AcDbEntity
  8
1
  6
Continuous
 62
     7
370
     9
100
AcDbLine
 10
2437.274066103121
 20
2130.0
 30
0.0
 11
2398.637033051558
 21
2140.352761804101
 31
0.0
  0
LINE
  5
3CD
330
3BF
100
AcDbEntity
  8
1
  6
Continuous
 62
     7
370
     9
100
AcDbLine
 10
2398.637033051558
 20
2119.647238195899
 30
0.0
 11
2398.637033051558
 21
2140.352761804101
 31
0.0
  0
LINE
  5
3CE
330
3BF
100
AcDbEntity
  8
1
  6
Continuous
 62
     7
370
     9
100
AcDbLine
 10
2427.61480784023
 20
2130.0
 30
0.0
 11
2408.296291314449
 21
2124.82361909795
 31
0.0
  0
LINE
  5
3CF
330
3BF
100
AcDbEntity
  8
1
  6
Continuous
 62
     7
370
     9
100
AcDbLine
 10
2427.61480784023
 20
2130.0
 30
0.0
 11
2408.296291314449
 21
2135.17638090205
 31
0.0
  0
LINE
  5
3D0
330
3BF
100
AcDbEntity
  8
1
  6
Continuous
 62
     7
370
     9
100
AcDbLine
 10
2408.296291314449
 20
2124.82361909795
 30
0.0
 11
2408.296291314449
 21
2135.17638090205
 31
0.0
  0
TEXT
  5
3D1
330
3BF
100
AcDbEntity
  8
1
  6
Continuous
 62
     7
370
     9
100
AcDbText
 10
1929.774066103121
 20
2130.0
 30
0.0
 40
100.0
  1
825
 41
0.7
100
AcDbText
  0
ENDBLK
  5
3C1
330
3BF
100
AcDbEntity
  8
0
100
AcDbBlockEnd
  0
BLOCK
  5
3D4
330
3D3
100
AcDbEntity
  8
0
100
AcDbBlockBegin
  2
Dim26
 70
     0
 71
     0
 10
0.0
 20
0.0
 30
0.0
  3
Dim26
  1

  0
LINE
  5
3D6
330
3D3
100
AcDbEntity
  8
1
  6
Continuous
 62
     7
370
     9
100
AcDbLine
 10
1612.27406610312
 20
2230.0
 30
0.0
 11
2637.274066103121
 21
2230.0
 31
0.0
  0
LINE
  5
3D7
330
3D3
100
AcDbEntity
  8
1
  6
Continuous
 62
     7
370
     9
100
AcDbLine
 10
1612.27406610312
 20
2270.0
 30
0.0
 11
1612.274066103118
 21
1490.0
 31
0.0
  0
LINE
  5
3D8
330
3D3
100
AcDbEntity
  8
1
  6
Continuous
 62
     7
370
     9
100
AcDbLine
 10
2637.274066103121
 20
2270.0
 30
0.0
 11
2637.274066103121
 21
1995.0
 31
0.0
  0
LINE
  5
3D9
330
3D3
100
AcDbEntity
  8
1
  6
Continuous
 62
     7
370
     9
100
AcDbLine
 10
1612.27406610312
 20
2230.0
 30
0.0
 11
1650.911099154682
 21
2240.352761804101
 31
0.0
  0
LINE
  5
3DA
330
3D3
100
AcDbEntity
  8
1
  6
Continuous
 62
     7
370
     9
100
AcDbLine
 10
1612.27406610312
 20
2230.0
 30
0.0
 11
1650.911099154682
 21
2219.647238195899
 31
0.0
  0
LINE
  5
3DB
330
3D3
100
AcDbEntity
  8
1
  6
Continuous
 62
     7
370
     9
100
AcDbLine
 10
1650.911099154682
 20
2240.352761804101
 30
0.0
 11
1650.911099154682
 21
2219.647238195899
 31
0.0
  0
LINE
  5
3DC
330
3D3
100
AcDbEntity
  8
1
  6
Continuous
 62
     7
370
     9
100
AcDbLine
 10
1621.933324366011
 20
2230.0
 30
0.0
 11
1641.251840891792
 21
2235.17638090205
 31
0.0
  0
LINE
  5
3DD
330
3D3
100
AcDbEntity
  8
1
  6
Continuous
 62
     7
370
     9
100
AcDbLine
 10
1621.933324366011
 20
2230.0
 30
0.0
 11
1641.251840891792
 21
2224.82361909795
 31
0.0
  0
LINE
  5
3DE
330
3D3
100
AcDbEntity
  8
1
  6
Continuous
 62
     7
370
     9
100
AcDbLine
 10
1641.251840891792
 20
2235.17638090205
 30
0.0
 11
1641.251840891792
 21
2224.82361909795
 31
0.0
  0
LINE
  5
3DF
330
3D3
100
AcDbEntity
  8
1
  6
Continuous
 62
     7
370
     9
100
AcDbLine
 10
2637.274066103121
 20
2230.0
 30
0.0
 11
2598.637033051558
 21
2219.647238195899
 31
0.0
  0
LINE
  5
3E0
330
3D3
100
AcDbEntity
  8
1
  6
Continuous
 62
     7
370
     9
100
AcDbLine
 10
2637.274066103121
 20
2230.0
 30
0.0
 11
2598.637033051558
 21
2240.352761804101
 31
0.0
  0
LINE
  5
3E1
330
3D3
100
AcDbEntity
  8
1
  6
Continuous
 62
     7
370
     9
100
AcDbLine
 10
2598.637033051558
 20
2219.647238195899
 30
0.0
 11
2598.637033051558
 21
2240.352761804101
 31
0.0
  0
LINE
  5
3E2
330
3D3
100
AcDbEntity
  8
1
  6
Continuous
 62
     7
370
     9
100
AcDbLine
 10
2627.614807840231
 20
2230.0
 30
0.0
 11
2608.296291314449
 21
2224.82361909795
 31
0.0
  0
LINE
  5
3E3
330
3D3
100
AcDbEntity
  8
1
  6
Continuous
 62
     7
370
     9
100
AcDbLine
 10
2627.614807840231
 20
2230.0
 30
0.0
 11
2608.296291314449
 21
2235.17638090205
 31
0.0
  0
LINE
  5
3E4
330
3D3
100
AcDbEntity
  8
1
  6
Continuous
 62
     7
370
     9
100
AcDbLine
 10
2608.296291314449
 20
2224.82361909795
 30
0.0
 11
2608.296291314449
 21
2235.17638090205
 31
0.0
  0
TEXT
  5
3E5
330
3D3
100
AcDbEntity
  8
1
  6
Continuous
 62
     7
370
     9
100
AcDbText
 10
1994.77406610312
 20
2230.0
 30
0.0
 40
100.0
  1
1025
 41
0.7
100
AcDbText
  0
ENDBLK
  5
3D5
330
3D3
100
AcDbEntity
  8
0
100
AcDbBlockEnd
  0
BLOCK
  5
3E8
330
3E7
100
AcDbEntity
  8
0
100
AcDbBlockBegin
  2
Dim27
 70
     0
 71
     0
 10
0.0
 20
0.0
 30
0.0
  3
Dim27
  1

  0
LINE
  5
3EA
330
3E7
100
AcDbEntity
  8
1
  6
Continuous
 62
     7
370
     9
100
AcDbLine
 10
1612.27406610312
 20
2330.0
 30
0.0
 11
2837.274066103121
 21
2330.0
 31
0.0
  0
LINE
  5
3EB
330
3E7
100
AcDbEntity
  8
1
  6
Continuous
 62
     7
370
     9
100
AcDbLine
 10
1612.27406610312
 20
2370.0
 30
0.0
 11
1612.274066103118
 21
1490.0
 31
0.0
  0
LINE
  5
3EC
330
3E7
100
AcDbEntity
  8
1
  6
Continuous
 62
     7
370
     9
100
AcDbLine
 10
2837.274066103121
 20
2370.0
 30
0.0
 11
2837.274066103121
 21
1995.0
 31
0.0
  0
LINE
  5
3ED
330
3E7
100
AcDbEntity
  8
1
  6
Continuous
 62
     7
370
     9
100
AcDbLine
 10
1612.27406610312
 20
2330.0
 30
0.0
 11
1650.911099154682
 21
2340.352761804101
 31
0.0
  0
LINE
  5
3EE
330
3E7
100
AcDbEntity
  8
1
  6
Continuous
 62
     7
370
     9
100
AcDbLine
 10
1612.27406610312
 20
2330.0
 30
0.0
 11
1650.911099154682
 21
2319.647238195899
 31
0.0
  0
LINE
  5
3EF
330
3E7
100
AcDbEntity
  8
1
  6
Continuous
 62
     7
370
     9
100
AcDbLine
 10
1650.911099154682
 20
2340.352761804101
 30
0.0
 11
1650.911099154682
 21
2319.647238195899
 31
0.0
  0
LINE
  5
3F0
330
3E7
100
AcDbEntity
  8
1
  6
Continuous
 62
     7
370
     9
100
AcDbLine
 10
1621.933324366011
 20
2330.0
 30
0.0
 11
1641.251840891792
 21
2335.17638090205
 31
0.0
  0
LINE
  5
3F1
330
3E7
100
AcDbEntity
  8
1
  6
Continuous
 62
     7
370
     9
100
AcDbLine
 10
1621.933324366011
 20
2330.0
 30
0.0
 11
1641.251840891792
 21
2324.82361909795
 31
0.0
  0
LINE
  5
3F2
330
3E7
100
AcDbEntity
  8
1
  6
Continuous
 62
     7
370
     9
100
AcDbLine
 10
1641.251840891792
 20
2335.17638090205
 30
0.0
 11
1641.251840891792
 21
2324.82361909795
 31
0.0
  0
LINE
  5
3F3
330
3E7
100
AcDbEntity
  8
1
  6
Continuous
 62
     7
370
     9
100
AcDbLine
 10
2837.274066103121
 20
2330.0
 30
0.0
 11
2798.637033051558
 21
2319.647238195899
 31
0.0
  0
LINE
  5
3F4
330
3E7
100
AcDbEntity
  8
1
  6
Continuous
 62
     7
370
     9
100
AcDbLine
 10
2837.274066103121
 20
2330.0
 30
0.0
 11
2798.637033051558
 21
2340.352761804101
 31
0.0
  0
LINE
  5
3F5
330
3E7
100
AcDbEntity
  8
1
  6
Continuous
 62
     7
370
     9
100
AcDbLine
 10
2798.637033051558
 20
2319.647238195899
 30
0.0
 11
2798.637033051558
 21
2340.352761804101
 31
0.0
  0
LINE
  5
3F6
330
3E7
100
AcDbEntity
  8
1
  6
Continuous
 62
     7
370
     9
100
AcDbLine
 10
2827.614807840231
 20
2330.0
 30
0.0
 11
2808.296291314449
 21
2324.82361909795
 31
0.0
  0
LINE
  5
3F7
330
3E7
100
AcDbEntity
  8
1
  6
Continuous
 62
     7
370
     9
100
AcDbLine
 10
2827.614807840231
 20
2330.0
 30
0.0
 11
2808.296291314449
 21
2335.17638090205
 31
0.0
  0
LINE
  5
3F8
330
3E7
100
AcDbEntity
  8
1
  6
Continuous
 62
     7
370
     9
100
AcDbLine
 10
2808.296291314449
 20
2324.82361909795
 30
0.0
 11
2808.296291314449
 21
2335.17638090205
 31
0.0
  0
TEXT
  5
3F9
330
3E7
100
AcDbEntity
  8
1
  6
Continuous
 62
     7
370
     9
100
AcDbText
 10
2094.774066103121
 20
2330.0
 30
0.0
 40
100.0
  1
1225
 41
0.7
100
AcDbText
  0
ENDBLK
  5
3E9
330
3E7
100
AcDbEntity
  8
0
100
AcDbBlockEnd
  0
BLOCK
  5
3FC
330
3FB
100
AcDbEntity
  8
0
100
AcDbBlockBegin
  2
Dim28
 70
     0
 71
     0
 10
0.0
 20
0.0
 30
0.0
  3
Dim28
  1

  0
LINE
  5
3FE
330
3FB
100
AcDbEntity
  8
1
  6
Continuous
 62
     7
370
     9
100
AcDbLine
 10
1612.274066103121
 20
2430.0
 30
0.0
 11
3037.274066103121
 21
2430.0
 31
0.0
  0
LINE
  5
3FF
330
3FB
100
AcDbEntity
  8
1
  6
Continuous
 62
     7
370
     9
100
AcDbLine
 10
1612.274066103121
 20
2470.0
 30
0.0
 11
1612.27406610312
 21
1490.0
 31
0.0
  0
LINE
  5
400
330
3FB
100
AcDbEntity
  8
1
  6
Continuous
 62
     7
370
     9
100
AcDbLine
 10
3037.274066103121
 20
2470.0
 30
0.0
 11
3037.27406610312
 21
1995.0
 31
0.0
  0
LINE
  5
401
330
3FB
100
AcDbEntity
  8
1
  6
Continuous
 62
     7
370
     9
100
AcDbLine
 10
1612.274066103121
 20
2430.0
 30
0.0
 11
1650.911099154684
 21
2440.352761804101
 31
0.0
  0
LINE
  5
402
330
3FB
100
AcDbEntity
  8
1
  6
Continuous
 62
     7
370
     9
100
AcDbLine
 10
1612.274066103121
 20
2430.0
 30
0.0
 11
1650.911099154684
 21
2419.647238195899
 31
0.0
  0
LINE
  5
403
330
3FB
100
AcDbEntity
  8
1
  6
Continuous
 62
     7
370
     9
100
AcDbLine
 10
1650.911099154684
 20
2440.352761804101
 30
0.0
 11
1650.911099154684
 21
2419.647238195899
 31
0.0
  0
LINE
  5
404
330
3FB
100
AcDbEntity
  8
1
  6
Continuous
 62
     7
370
     9
100
AcDbLine
 10
1621.933324366012
 20
2430.0
 30
0.0
 11
1641.251840891793
 21
2435.17638090205
 31
0.0
  0
LINE
  5
405
330
3FB
100
AcDbEntity
  8
1
  6
Continuous
 62
     7
370
     9
100
AcDbLine
 10
1621.933324366012
 20
2430.0
 30
0.0
 11
1641.251840891793
 21
2424.82361909795
 31
0.0
  0
LINE
  5
406
330
3FB
100
AcDbEntity
  8
1
  6
Continuous
 62
     7
370
     9
100
AcDbLine
 10
1641.251840891793
 20
2435.17638090205
 30
0.0
 11
1641.251840891793
 21
2424.82361909795
 31
0.0
  0
LINE
  5
407
330
3FB
100
AcDbEntity
  8
1
  6
Continuous
 62
     7
370
     9
100
AcDbLine
 10
3037.274066103121
 20
2430.0
 30
0.0
 11
2998.637033051558
 21
2419.647238195899
 31
0.0
  0
LINE
  5
408
330
3FB
100
AcDbEntity
  8
1
  6
Continuous
 62
     7
370
     9
100
AcDbLine
 10
3037.274066103121
 20
2430.0
 30
0.0
 11
2998.637033051558
 21
2440.352761804101
 31
0.0
  0
LINE
  5
409
330
3FB
100
AcDbEntity
  8
1
  6
Continuous
 62
     7
370
     9
100
AcDbLine
 10
2998.637033051558
 20
2419.647238195899
 30
0.0
 11
2998.637033051558
 21
2440.352761804101
 31
0.0
  0
LINE
  5
40A
330
3FB
100
AcDbEntity
  8
1
  6
Continuous
 62
     7
370
     9
100
AcDbLine
 10
3027.614807840231
 20
2430.0
 30
0.0
 11
3008.296291314449
 21
2424.82361909795
 31
0.0
  0
LINE
  5
40B
330
3FB
100
AcDbEntity
  8
1
  6
Continuous
 62
     7
370
     9
100
AcDbLine
 10
3027.614807840231
 20
2430.0
 30
0.0
 11
3008.296291314449
 21
2435.17638090205
 31
0.0
  0
LINE
  5
40C
330
3FB
100
AcDbEntity
  8
1
  6
Continuous
 62
     7
370
     9
100
AcDbLine
 10
3008.296291314449
 20
2424.82361909795
 30
0.0
 11
3008.296291314449
 21
2435.17638090205
 31
0.0
  0
TEXT
  5
40D
330
3FB
100
AcDbEntity
  8
1
  6
Continuous
 62
     7
370
     9
100
AcDbText
 10
2194.774066103121
 20
2430.0
 30
0.0
 40
100.0
  1
1425
 41
0.7
100
AcDbText
  0
ENDBLK
  5
3FD
330
3FB
100
AcDbEntity
  8
0
100
AcDbBlockEnd
  0
BLOCK
  5
410
330
40F
100
AcDbEntity
  8
0
100
AcDbBlockBegin
  2
Dim29
 70
     0
 71
     0
 10
0.0
 20
0.0
 30
0.0
  3
Dim29
  1

  0
LINE
  5
412
330
40F
100
AcDbEntity
  8
1
  6
Continuous
 62
     7
370
     9
100
AcDbLine
 10
1612.27406610312
 20
2530.0
 30
0.0
 11
3237.274066103122
 21
2530.0
 31
0.0
  0
LINE
  5
413
330
40F
100
AcDbEntity
  8
1
  6
Continuous
 62
     7
370
     9
100
AcDbLine
 10
1612.27406610312
 20
2570.0
 30
0.0
 11
1612.274066103118
 21
1490.0
 31
0.0
  0
LINE
  5
414
330
40F
100
AcDbEntity
  8
1
  6
Continuous
 62
     7
370
     9
100
AcDbLine
 10
3237.274066103122
 20
2570.0
 30
0.0
 11
3237.274066103121
 21
1995.0
 31
0.0
  0
LINE
  5
415
330
40F
100
AcDbEntity
  8
1
  6
Continuous
 62
     7
370
     9
100
AcDbLine
 10
1612.27406610312
 20
2530.0
 30
0.0
 11
1650.911099154683
 21
2540.352761804101
 31
0.0
  0
LINE
  5
416
330
40F
100
AcDbEntity
  8
1
  6
Continuous
 62
     7
370
     9
100
AcDbLine
 10
1612.27406610312
 20
2530.0
 30
0.0
 11
1650.911099154683
 21
2519.647238195899
 31
0.0
  0
LINE
  5
417
330
40F
100
AcDbEntity
  8
1
  6
Continuous
 62
     7
370
     9
100
AcDbLine
 10
1650.911099154683
 20
2540.352761804101
 30
0.0
 11
1650.911099154683
 21
2519.647238195899
 31
0.0
  0
LINE
  5
418
330
40F
100
AcDbEntity
  8
1
  6
Continuous
 62
     7
370
     9
100
AcDbLine
 10
1621.933324366011
 20
2530.0
 30
0.0
 11
1641.251840891792
 21
2535.17638090205
 31
0.0
  0
LINE
  5
419
330
40F
100
AcDbEntity
  8
1
  6
Continuous
 62
     7
370
     9
100
AcDbLine
 10
1621.933324366011
 20
2530.0
 30
0.0
 11
1641.251840891792
 21
2524.82361909795
 31
0.0
  0
LINE
  5
41A
330
40F
100
AcDbEntity
  8
1
  6
Continuous
 62
     7
370
     9
100
AcDbLine
 10
1641.251840891792
 20
2535.17638090205
 30
0.0
 11
1641.251840891792
 21
2524.82361909795
 31
0.0
  0
LINE
  5
41B
330
40F
100
AcDbEntity
  8
1
  6
Continuous
 62
     7
370
     9
100
AcDbLine
 10
3237.274066103122
 20
2530.0
 30
0.0
 11
3198.637033051559
 21
2519.647238195899
 31
0.0
  0
LINE
  5
41C
330
40F
100
AcDbEntity
  8
1
  6
Continuous
 62
     7
370
     9
100
AcDbLine
 10
3237.274066103122
 20
2530.0
 30
0.0
 11
3198.637033051559
 21
2540.352761804101
 31
0.0
  0
LINE
  5
41D
330
40F
100
AcDbEntity
  8
1
  6
Continuous
 62
     7
370
     9
100
AcDbLine
 10
3198.637033051559
 20
2519.647238195899
 30
0.0
 11
3198.637033051559
 21
2540.352761804101
 31
0.0
  0
LINE
  5
41E
330
40F
100
AcDbEntity
  8
1
  6
Continuous
 62
     7
370
     9
100
AcDbLine
 10
3227.614807840231
 20
2530.0
 30
0.0
 11
3208.29629131445
 21
2524.82361909795
 31
0.0
  0
LINE
  5
41F
330
40F
100
AcDbEntity
  8
1
  6
Continuous
 62
     7
370
     9
100
AcDbLine
 10
3227.614807840231
 20
2530.0
 30
0.0
 11
3208.29629131445
 21
2535.17638090205
 31
0.0
  0
LINE
  5
420
330
40F
100
AcDbEntity
  8
1
  6
Continuous
 62
     7
370
     9
100
AcDbLine
 10
3208.29629131445
 20
2524.82361909795
 30
0.0
 11
3208.29629131445
 21
2535.17638090205
 31
0.0
  0
TEXT
  5
421
330
40F
100
AcDbEntity
  8
1
  6
Continuous
 62
     7
370
     9
100
AcDbText
 10
2294.774066103121
 20
2530.0
 30
0.0
 40
100.0
  1
1625
 41
0.7
100
AcDbText
  0
ENDBLK
  5
411
330
40F
100
AcDbEntity
  8
0
100
AcDbBlockEnd
  0
BLOCK
  5
424
330
423
100
AcDbEntity
  8
0
100
AcDbBlockBegin
  2
Dim30
 70
     0
 71
     0
 10
0.0
 20
0.0
 30
0.0
  3
Dim30
  1

  0
LINE
  5
426
330
423
100
AcDbEntity
  8
1
  6
Continuous
 62
     7
370
     9
100
AcDbLine
 10
1612.274066103118
 20
2630.0
 30
0.0
 11
3437.274066103121
 21
2630.0
 31
0.0
  0
LINE
  5
427
330
423
100
AcDbEntity
  8
1
  6
Continuous
 62
     7
370
     9
100
AcDbLine
 10
1612.274066103118
 20
2670.0
 30
0.0
 11
1612.274066103118
 21
1490.0
 31
0.0
  0
LINE
  5
428
330
423
100
AcDbEntity
  8
1
  6
Continuous
 62
     7
370
     9
100
AcDbLine
 10
3437.274066103121
 20
2670.0
 30
0.0
 11
3437.274066103121
 21
1995.0
 31
0.0
  0
LINE
  5
429
330
423
100
AcDbEntity
  8
1
  6
Continuous
 62
     7
370
     9
100
AcDbLine
 10
1612.274066103118
 20
2630.0
 30
0.0
 11
1650.911099154681
 21
2640.352761804101
 31
0.0
  0
LINE
  5
42A
330
423
100
AcDbEntity
  8
1
  6
Continuous
 62
     7
370
     9
100
AcDbLine
 10
1612.274066103118
 20
2630.0
 30
0.0
 11
1650.911099154681
 21
2619.647238195899
 31
0.0
  0
LINE
  5
42B
330
423
100
AcDbEntity
  8
1
  6
Continuous
 62
     7
370
     9
100
AcDbLine
 10
1650.911099154681
 20
2640.352761804101
 30
0.0
 11
1650.911099154681
 21
2619.647238195899
 31
0.0
  0
LINE
  5
42C
330
423
100
AcDbEntity
  8
1
  6
Continuous
 62
     7
370
     9
100
AcDbLine
 10
1621.933324366009
 20
2630.0
 30
0.0
 11
1641.25184089179
 21
2635.17638090205
 31
0.0
  0
LINE
  5
42D
330
423
100
AcDbEntity
  8
1
  6
Continuous
 62
     7
370
     9
100
AcDbLine
 10
1621.933324366009
 20
2630.0
 30
0.0
 11
1641.25184089179
 21
2624.82361909795
 31
0.0
  0
LINE
  5
42E
330
423
100
AcDbEntity
  8
1
  6
Continuous
 62
     7
370
     9
100
AcDbLine
 10
1641.25184089179
 20
2635.17638090205
 30
0.0
 11
1641.25184089179
 21
2624.82361909795
 31
0.0
  0
LINE
  5
42F
330
423
100
AcDbEntity
  8
1
  6
Continuous
 62
     7
370
     9
100
AcDbLine
 10
3437.274066103121
 20
2630.0
 30
0.0
 11
3398.637033051558
 21
2619.647238195899
 31
0.0
  0
LINE
  5
430
330
423
100
AcDbEntity
  8
1
  6
Continuous
 62
     7
370
     9
100
AcDbLine
 10
3437.274066103121
 20
2630.0
 30
0.0
 11
3398.637033051558
 21
2640.352761804101
 31
0.0
  0
LINE
  5
431
330
423
100
AcDbEntity
  8
1
  6
Continuous
 62
     7
370
     9
100
AcDbLine
 10
3398.637033051558
 20
2619.647238195899
 30
0.0
 11
3398.637033051558
 21
2640.352761804101
 31
0.0
  0
LINE
  5
432
330
423
100
AcDbEntity
  8
1
  6
Continuous
 62
     7
370
     9
100
AcDbLine
 10
3427.61480784023
 20
2630.0
 30
0.0
 11
3408.296291314449
 21
2624.82361909795
 31
0.0
  0
LINE
  5
433
330
423
100
AcDbEntity
  8
1
  6
Continuous
 62
     7
370
     9
100
AcDbLine
 10
3427.61480784023
 20
2630.0
 30
0.0
 11
3408.296291314449
 21
2635.17638090205
 31
0.0
  0
LINE
  5
434
330
423
100
AcDbEntity
  8
1
  6
Continuous
 62
     7
370
     9
100
AcDbLine
 10
3408.296291314449
 20
2624.82361909795
 30
0.0
 11
3408.296291314449
 21
2635.17638090205
 31
0.0
  0
TEXT
  5
435
330
423
100
AcDbEntity
  8
1
  6
Continuous
 62
     7
370
     9
100
AcDbText
 10
2394.774066103119
 20
2630.0
 30
0.0
 40
100.0
  1
1825
 41
0.7
100
AcDbText
  0
ENDBLK
  5
425
330
423
100
AcDbEntity
  8
0
100
AcDbBlockEnd
  0
BLOCK
  5
438
330
437
100
AcDbEntity
  8
0
100
AcDbBlockBegin
  2
Dim31
 70
     0
 71
     0
 10
0.0
 20
0.0
 30
0.0
  3
Dim31
  1

  0
LINE
  5
43A
330
437
100
AcDbEntity
  8
1
  6
Continuous
 62
     7
370
     9
100
AcDbLine
 10
1612.274066103123
 20
2730.0
 30
0.0
 11
3637.274066103122
 21
2730.0
 31
0.0
  0
LINE
  5
43B
330
437
100
AcDbEntity
  8
1
  6
Continuous
 62
     7
370
     9
100
AcDbLine
 10
1612.274066103123
 20
2770.0
 30
0.0
 11
1612.274066103121
 21
1490.0
 31
0.0
  0
LINE
  5
43C
330
437
100
AcDbEntity
  8
1
  6
Continuous
 62
     7
370
     9
100
AcDbLine
 10
3637.274066103122
 20
2770.0
 30
0.0
 11
3637.274066103121
 21
1995.0
 31
0.0
  0
LINE
  5
43D
330
437
100
AcDbEntity
  8
1
  6
Continuous
 62
     7
370
     9
100
AcDbLine
 10
1612.274066103123
 20
2730.0
 30
0.0
 11
1650.911099154685
 21
2740.352761804101
 31
0.0
  0
LINE
  5
43E
330
437
100
AcDbEntity
  8
1
  6
Continuous
 62
     7
370
     9
100
AcDbLine
 10
1612.274066103123
 20
2730.0
 30
0.0
 11
1650.911099154685
 21
2719.647238195899
 31
0.0
  0
LINE
  5
43F
330
437
100
AcDbEntity
  8
1
  6
Continuous
 62
     7
370
     9
100
AcDbLine
 10
1650.911099154685
 20
2740.352761804101
 30
0.0
 11
1650.911099154685
 21
2719.647238195899
 31
0.0
  0
LINE
  5
440
330
437
100
AcDbEntity
  8
1
  6
Continuous
 62
     7
370
     9
100
AcDbLine
 10
1621.933324366013
 20
2730.0
 30
0.0
 11
1641.251840891795
 21
2735.17638090205
 31
0.0
  0
LINE
  5
441
330
437
100
AcDbEntity
  8
1
  6
Continuous
 62
     7
370
     9
100
AcDbLine
 10
1621.933324366013
 20
2730.0
 30
0.0
 11
1641.251840891795
 21
2724.82361909795
 31
0.0
  0
LINE
  5
442
330
437
100
AcDbEntity
  8
1
  6
Continuous
 62
     7
370
     9
100
AcDbLine
 10
1641.251840891795
 20
2735.17638090205
 30
0.0
 11
1641.251840891795
 21
2724.82361909795
 31
0.0
  0
LINE
  5
443
330
437
100
AcDbEntity
  8
1
  6
Continuous
 62
     7
370
     9
100
AcDbLine
 10
3637.274066103122
 20
2730.0
 30
0.0
 11
3598.637033051559
 21
2719.647238195899
 31
0.0
  0
LINE
  5
444
330
437
100
AcDbEntity
  8
1
  6
Continuous
 62
     7
370
     9
100
AcDbLine
 10
3637.274066103122
 20
2730.0
 30
0.0
 11
3598.637033051559
 21
2740.352761804101
 31
0.0
  0
LINE
  5
445
330
437
100
AcDbEntity
  8
1
  6
Continuous
 62
     7
370
     9
100
AcDbLine
 10
3598.637033051559
 20
2719.647238195899
 30
0.0
 11
3598.637033051559
 21
2740.352761804101
 31
0.0
  0
LINE
  5
446
330
437
100
AcDbEntity
  8
1
  6
Continuous
 62
     7
370
     9
100
AcDbLine
 10
3627.614807840231
 20
2730.0
 30
0.0
 11
3608.29629131445
 21
2724.82361909795
 31
0.0
  0
LINE
  5
447
330
437
100
AcDbEntity
  8
1
  6
Continuous
 62
     7
370
     9
100
AcDbLine
 10
3627.614807840231
 20
2730.0
 30
0.0
 11
3608.29629131445
 21
2735.17638090205
 31
0.0
  0
LINE
  5
448
330
437
100
AcDbEntity
  8
1
  6
Continuous
 62
     7
370
     9
100
AcDbLine
 10
3608.29629131445
 20
2724.82361909795
 30
0.0
 11
3608.29629131445
 21
2735.17638090205
 31
0.0
  0
TEXT
  5
449
330
437
100
AcDbEntity
  8
1
  6
Continuous
 62
     7
370
     9
100
AcDbText
 10
2494.774066103122
 20
2730.0
 30
0.0
 40
100.0
  1
2025
 41
0.7
100
AcDbText
  0
ENDBLK
  5
439
330
437
100
AcDbEntity
  8
0
100
AcDbBlockEnd
  0
BLOCK
  5
44C
330
44B
100
AcDbEntity
  8
0
100
AcDbBlockBegin
  2
Dim32
 70
     0
 71
     0
 10
0.0
 20
0.0
 30
0.0
  3
Dim32
  1

  0
LINE
  5
44E
330
44B
100
AcDbEntity
  8
1
  6
Continuous
 62
     7
370
     9
100
AcDbLine
 10
1612.274066103123
 20
2830.0
 30
0.0
 11
3837.274066103122
 21
2830.0
 31
0.0
  0
LINE
  5
44F
330
44B
100
AcDbEntity
  8
1
  6
Continuous
 62
     7
370
     9
100
AcDbLine
 10
1612.274066103123
 20
2870.0
 30
0.0
 11
1612.274066103121
 21
1490.0
 31
0.0
  0
LINE
  5
450
330
44B
100
AcDbEntity
  8
1
  6
Continuous
 62
     7
370
     9
100
AcDbLine
 10
3837.274066103122
 20
2870.0
 30
0.0
 11
3837.274066103121
 21
1995.0
 31
0.0
  0
LINE
  5
451
330
44B
100
AcDbEntity
  8
1
  6
Continuous
 62
     7
370
     9
100
AcDbLine
 10
1612.274066103123
 20
2830.0
 30
0.0
 11
1650.911099154685
 21
2840.352761804101
 31
0.0
  0
LINE
  5
452
330
44B
100
AcDbEntity
  8
1
  6
Continuous
 62
     7
370
     9
100
AcDbLine
 10
1612.274066103123
 20
2830.0
 30
0.0
 11
1650.911099154685
 21
2819.647238195899
 31
0.0
  0
LINE
  5
453
330
44B
100
AcDbEntity
  8
1
  6
Continuous
 62
     7
370
     9
100
AcDbLine
 10
1650.911099154685
 20
2840.352761804101
 30
0.0
 11
1650.911099154685
 21
2819.647238195899
 31
0.0
  0
LINE
  5
454
330
44B
100
AcDbEntity
  8
1
  6
Continuous
 62
     7
370
     9
100
AcDbLine
 10
1621.933324366013
 20
2830.0
 30
0.0
 11
1641.251840891795
 21
2835.17638090205
 31
0.0
  0
LINE
  5
455
330
44B
100
AcDbEntity
  8
1
  6
Continuous
 62
     7
370
     9
100
AcDbLine
 10
1621.933324366013
 20
2830.0
 30
0.0
 11
1641.251840891795
 21
2824.82361909795
 31
0.0
  0
LINE
  5
456
330
44B
100
AcDbEntity
  8
1
  6
Continuous
 62
     7
370
     9
100
AcDbLine
 10
1641.251840891795
 20
2835.17638090205
 30
0.0
 11
1641.251840891795
 21
2824.82361909795
 31
0.0
  0
LINE
  5
457
330
44B
100
AcDbEntity
  8
1
  6
Continuous
 62
     7
370
     9
100
AcDbLine
 10
3837.274066103122
 20
2830.0
 30
0.0
 11
3798.637033051559
 21
2819.647238195899
 31
0.0
  0
LINE
  5
458
330
44B
100
AcDbEntity
  8
1
  6
Continuous
 62
     7
370
     9
100
AcDbLine
 10
3837.274066103122
 20
2830.0
 30
0.0
 11
3798.637033051559
 21
2840.352761804101
 31
0.0
  0
LINE
  5
459
330
44B
100
AcDbEntity
  8
1
  6
Continuous
 62
     7
370
     9
100
AcDbLine
 10
3798.637033051559
 20
2819.647238195899
 30
0.0
 11
3798.637033051559
 21
2840.352761804101
 31
0.0
  0
LINE
  5
45A
330
44B
100
AcDbEntity
  8
1
  6
Continuous
 62
     7
370
     9
100
AcDbLine
 10
3827.614807840232
 20
2830.0
 30
0.0
 11
3808.29629131445
 21
2824.82361909795
 31
0.0
  0
LINE
  5
45B
330
44B
100
AcDbEntity
  8
1
  6
Continuous
 62
     7
370
     9
100
AcDbLine
 10
3827.614807840232
 20
2830.0
 30
0.0
 11
3808.29629131445
 21
2835.17638090205
 31
0.0
  0
LINE
  5
45C
330
44B
100
AcDbEntity
  8
1
  6
Continuous
 62
     7
370
     9
100
AcDbLine
 10
3808.29629131445
 20
2824.82361909795
 30
0.0
 11
3808.29629131445
 21
2835.17638090205
 31
0.0
  0
TEXT
  5
45D
330
44B
100
AcDbEntity
  8
1
  6
Continuous
 62
     7
370
     9
100
AcDbText
 10
2594.774066103122
 20
2830.0
 30
0.0
 40
100.0
  1
2225
 41
0.7
100
AcDbText
  0
ENDBLK
  5
44D
330
44B
100
AcDbEntity
  8
0
100
AcDbBlockEnd
  0
BLOCK
  5
460
330
45F
100
AcDbEntity
  8
0
100
AcDbBlockBegin
  2
Dim33
 70
     0
 71
     0
 10
0.0
 20
0.0
 30
0.0
  3
Dim33
  1

  0
LINE
  5
462
330
45F
100
AcDbEntity
  8
1
  6
Continuous
 62
     7
370
     9
100
AcDbLine
 10
6107.274066103128
 20
2930.0
 30
0.0
 11
1612.274066103126
 21
2930.0
 31
0.0
  0
LINE
  5
463
330
45F
100
AcDbEntity
  8
1
  6
Continuous
 62
     7
370
     9
100
AcDbLine
 10
6107.274066103128
 20
2970.0
 30
0.0
 11
6107.274066103122
 21
1995.0
 31
0.0
  0
LINE
  5
464
330
45F
100
AcDbEntity
  8
1
  6
Continuous
 62
     7
370
     9
100
AcDbLine
 10
1612.274066103126
 20
2970.0
 30
0.0
 11
1612.274066103119
 21
1490.0
 31
0.0
  0
LINE
  5
465
330
45F
100
AcDbEntity
  8
1
  6
Continuous
 62
     7
370
     9
100
AcDbLine
 10
6107.274066103128
 20
2930.0
 30
0.0
 11
6068.637033051565
 21
2919.647238195899
 31
0.0
  0
LINE
  5
466
330
45F
100
AcDbEntity
  8
1
  6
Continuous
 62
     7
370
     9
100
AcDbLine
 10
6107.274066103128
 20
2930.0
 30
0.0
 11
6068.637033051565
 21
2940.352761804101
 31
0.0
  0
LINE
  5
467
330
45F
100
AcDbEntity
  8
1
  6
Continuous
 62
     7
370
     9
100
AcDbLine
 10
6068.637033051565
 20
2919.647238195899
 30
0.0
 11
6068.637033051565
 21
2940.352761804101
 31
0.0
  0
LINE
  5
468
330
45F
100
AcDbEntity
  8
1
  6
Continuous
 62
     7
370
     9
100
AcDbLine
 10
6097.614807840237
 20
2930.0
 30
0.0
 11
6078.296291314456
 21
2924.82361909795
 31
0.0
  0
LINE
  5
469
330
45F
100
AcDbEntity
  8
1
  6
Continuous
 62
     7
370
     9
100
AcDbLine
 10
6097.614807840237
 20
2930.0
 30
0.0
 11
6078.296291314456
 21
2935.17638090205
 31
0.0
  0
LINE
  5
46A
330
45F
100
AcDbEntity
  8
1
  6
Continuous
 62
     7
370
     9
100
AcDbLine
 10
6078.296291314456
 20
2924.82361909795
 30
0.0
 11
6078.296291314456
 21
2935.17638090205
 31
0.0
  0
LINE
  5
46B
330
45F
100
AcDbEntity
  8
1
  6
Continuous
 62
     7
370
     9
100
AcDbLine
 10
1612.274066103126
 20
2930.0
 30
0.0
 11
1650.911099154688
 21
2940.352761804101
 31
0.0
  0
LINE
  5
46C
330
45F
100
AcDbEntity
  8
1
  6
Continuous
 62
     7
370
     9
100
AcDbLine
 10
1612.274066103126
 20
2930.0
 30
0.0
 11
1650.911099154688
 21
2919.647238195899
 31
0.0
  0
LINE
  5
46D
330
45F
100
AcDbEntity
  8
1
  6
Continuous
 62
     7
370
     9
100
AcDbLine
 10
1650.911099154688
 20
2940.352761804101
 30
0.0
 11
1650.911099154688
 21
2919.647238195899
 31
0.0
  0
LINE
  5
46E
330
45F
100
AcDbEntity
  8
1
  6
Continuous
 62
     7
370
     9
100
AcDbLine
 10
1621.933324366016
 20
2930.0
 30
0.0
 11
1641.251840891798
 21
2935.17638090205
 31
0.0
  0
LINE
  5
46F
330
45F
100
AcDbEntity
  8
1
  6
Continuous
 62
     7
370
     9
100
AcDbLine
 10
1621.933324366016
 20
2930.0
 30
0.0
 11
1641.251840891798
 21
2924.82361909795
 31
0.0
  0
LINE
  5
470
330
45F
100
AcDbEntity
  8
1
  6
Continuous
 62
     7
370
     9
100
AcDbLine
 10
1641.251840891798
 20
2935.17638090205
 30
0.0
 11
1641.251840891798
 21
2924.82361909795
 31
0.0
  0
TEXT
  5
471
330
45F
100
AcDbEntity
  8
1
  6
Continuous
 62
     7
370
     9
100
AcDbText
 10
3729.774066103126
 20
2930.0
 30
0.0
 40
100.0
  1
4495
 50
0.0000000000000254
 41
0.7
100
AcDbText
  0
ENDBLK
  5
461
330
45F
100
AcDbEntity
  8
0
100
AcDbBlockEnd
  0
BLOCK
  5
477
330
476
100
AcDbEntity
  8
0
100
AcDbBlockBegin
  2
Dim34
 70
     0
 71
     0
 10
0.0
 20
0.0
 30
0.0
  3
Dim34
  1

  0
LINE
  5
479
330
476
100
AcDbEntity
  8
1
  6
Continuous
 62
     7
370
     9
100
AcDbLine
 10
4137.27406610312
 20
2070.0
 30
0.0
 11
4137.27406610312
 21
1840.0
 31
0.0
  0
LINE
  5
47A
330
476
100
AcDbEntity
  8
1
  6
Continuous
 62
     7
370
     9
100
AcDbLine
 10
4177.27406610312
 20
2030.0
 30
0.0
 11
3877.274066103121
 21
2030.0
 31
0.0
  0
LINE
  5
47B
330
476
100
AcDbEntity
  8
1
  6
Continuous
 62
     7
370
     9
100
AcDbLine
 10
4177.27406610312
 20
1880.0
 30
0.0
 11
3877.274066103121
 21
1880.0
 31
0.0
  0
LINE
  5
47C
330
476
100
AcDbEntity
  8
1
  6
Continuous
 62
     7
370
     9
100
AcDbLine
 10
4137.27406610312
 20
2030.0
 30
0.0
 11
4126.92130429902
 21
2068.637033051563
 31
0.0
  0
LINE
  5
47D
330
476
100
AcDbEntity
  8
1
  6
Continuous
 62
     7
370
     9
100
AcDbLine
 10
4137.27406610312
 20
2030.0
 30
0.0
 11
4147.626827907221
 21
2068.637033051563
 31
0.0
  0
LINE
  5
47E
330
476
100
AcDbEntity
  8
1
  6
Continuous
 62
     7
370
     9
100
AcDbLine
 10
4126.92130429902
 20
2068.637033051563
 30
0.0
 11
4147.626827907221
 21
2068.637033051563
 31
0.0
  0
LINE
  5
47F
330
476
100
AcDbEntity
  8
1
  6
Continuous
 62
     7
370
     9
100
AcDbLine
 10
4137.27406610312
 20
2039.659258262891
 30
0.0
 11
4132.09768520107
 21
2058.977774788672
 31
0.0
  0
LINE
  5
480
330
476
100
AcDbEntity
  8
1
  6
Continuous
 62
     7
370
     9
100
AcDbLine
 10
4137.27406610312
 20
2039.659258262891
 30
0.0
 11
4142.450447005171
 21
2058.977774788672
 31
0.0
  0
LINE
  5
481
330
476
100
AcDbEntity
  8
1
  6
Continuous
 62
     7
370
     9
100
AcDbLine
 10
4132.09768520107
 20
2058.977774788672
 30
0.0
 11
4142.450447005171
 21
2058.977774788672
 31
0.0
  0
LINE
  5
482
330
476
100
AcDbEntity
  8
1
  6
Continuous
 62
     7
370
     9
100
AcDbLine
 10
4137.27406610312
 20
1880.0
 30
0.0
 11
4147.626827907221
 21
1841.362966948437
 31
0.0
  0
LINE
  5
483
330
476
100
AcDbEntity
  8
1
  6
Continuous
 62
     7
370
     9
100
AcDbLine
 10
4137.27406610312
 20
1880.0
 30
0.0
 11
4126.92130429902
 21
1841.362966948437
 31
0.0
  0
LINE
  5
484
330
476
100
AcDbEntity
  8
1
  6
Continuous
 62
     7
370
     9
100
AcDbLine
 10
4147.626827907221
 20
1841.362966948437
 30
0.0
 11
4126.92130429902
 21
1841.362966948437
 31
0.0
  0
LINE
  5
485
330
476
100
AcDbEntity
  8
1
  6
Continuous
 62
     7
370
     9
100
AcDbLine
 10
4137.27406610312
 20
1870.340741737109
 30
0.0
 11
4142.450447005171
 21
1851.022225211328
 31
0.0
  0
LINE
  5
486
330
476
100
AcDbEntity
  8
1
  6
Continuous
 62
     7
370
     9
100
AcDbLine
 10
4137.27406610312
 20
1870.340741737109
 30
0.0
 11
4132.09768520107
 21
1851.022225211328
 31
0.0
  0
LINE
  5
487
330
476
100
AcDbEntity
  8
1
  6
Continuous
 62
     7
370
     9
100
AcDbLine
 10
4142.450447005171
 20
1851.022225211328
 30
0.0
 11
4132.09768520107
 21
1851.022225211328
 31
0.0
  0
TEXT
  5
488
330
476
100
AcDbEntity
  8
1
  6
Continuous
 62
     7
370
     9
100
AcDbText
 10
4247.27406610312
 20
1885.0
 30
0.0
 40
100.0
  1
150
 50
89.9999999999999
 41
0.7
100
AcDbText
  0
ENDBLK
  5
478
330
476
100
AcDbEntity
  8
0
100
AcDbBlockEnd
  0
BLOCK
  5
48B
330
48A
100
AcDbEntity
  8
0
100
AcDbBlockBegin
  2
Dim35
 70
     0
 71
     0
 10
0.0
 20
0.0
 30
0.0
  3
Dim35
  1

  0
LINE
  5
48D
330
48A
100
AcDbEntity
  8
1
  6
Continuous
 62
     7
370
     9
100
AcDbLine
 10
4037.27406610312
 20
2104.21052631579
 30
0.0
 11
4037.274066103121
 21
1840.0
 31
0.0
  0
LINE
  5
48E
330
48A
100
AcDbEntity
  8
1
  6
Continuous
 62
     7
370
     9
100
AcDbLine
 10
4077.274066103121
 20
1955.0
 30
0.0
 11
3877.274066103121
 21
1955.0
 31
0.0
  0
LINE
  5
48F
330
48A
100
AcDbEntity
  8
1
  6
Continuous
 62
     7
370
     9
100
AcDbLine
 10
4077.274066103121
 20
1880.0
 30
0.0
 11
3877.274066103121
 21
1880.0
 31
0.0
  0
LINE
  5
490
330
48A
100
AcDbEntity
  8
1
  6
Continuous
 62
     7
370
     9
100
AcDbLine
 10
4037.274066103121
 20
1955.0
 30
0.0
 11
4026.92130429902
 21
1993.637033051563
 31
0.0
  0
LINE
  5
491
330
48A
100
AcDbEntity
  8
1
  6
Continuous
 62
     7
370
     9
100
AcDbLine
 10
4037.274066103121
 20
1955.0
 30
0.0
 11
4047.626827907221
 21
1993.637033051563
 31
0.0
  0
LINE
  5
492
330
48A
100
AcDbEntity
  8
1
  6
Continuous
 62
     7
370
     9
100
AcDbLine
 10
4026.92130429902
 20
1993.637033051563
 30
0.0
 11
4047.626827907221
 21
1993.637033051563
 31
0.0
  0
LINE
  5
493
330
48A
100
AcDbEntity
  8
1
  6
Continuous
 62
     7
370
     9
100
AcDbLine
 10
4037.274066103121
 20
1964.659258262891
 30
0.0
 11
4032.09768520107
 21
1983.977774788672
 31
0.0
  0
LINE
  5
494
330
48A
100
AcDbEntity
  8
1
  6
Continuous
 62
     7
370
     9
100
AcDbLine
 10
4037.274066103121
 20
1964.659258262891
 30
0.0
 11
4042.450447005171
 21
1983.977774788672
 31
0.0
  0
LINE
  5
495
330
48A
100
AcDbEntity
  8
1
  6
Continuous
 62
     7
370
     9
100
AcDbLine
 10
4032.09768520107
 20
1983.977774788672
 30
0.0
 11
4042.450447005171
 21
1983.977774788672
 31
0.0
  0
LINE
  5
496
330
48A
100
AcDbEntity
  8
1
  6
Continuous
 62
     7
370
     9
100
AcDbLine
 10
4037.274066103121
 20
1880.0
 30
0.0
 11
4047.626827907221
 21
1841.362966948437
 31
0.0
  0
LINE
  5
497
330
48A
100
AcDbEntity
  8
1
  6
Continuous
 62
     7
370
     9
100
AcDbLine
 10
4037.274066103121
 20
1880.0
 30
0.0
 11
4026.92130429902
 21
1841.362966948437
 31
0.0
  0
LINE
  5
498
330
48A
100
AcDbEntity
  8
1
  6
Continuous
 62
     7
370
     9
100
AcDbLine
 10
4047.626827907221
 20
1841.362966948437
 30
0.0
 11
4026.92130429902
 21
1841.362966948437
 31
0.0
  0
LINE
  5
499
330
48A
100
AcDbEntity
  8
1
  6
Continuous
 62
     7
370
     9
100
AcDbLine
 10
4037.274066103121
 20
1870.340741737109
 30
0.0
 11
4042.450447005171
 21
1851.022225211328
 31
0.0
  0
LINE
  5
49A
330
48A
100
AcDbEntity
  8
1
  6
Continuous
 62
     7
370
     9
100
AcDbLine
 10
4037.274066103121
 20
1870.340741737109
 30
0.0
 11
4032.09768520107
 21
1851.022225211328
 31
0.0
  0
LINE
  5
49B
330
48A
100
AcDbEntity
  8
1
  6
Continuous
 62
     7
370
     9
100
AcDbLine
 10
4042.450447005171
 20
1851.022225211328
 30
0.0
 11
4032.09768520107
 21
1851.022225211328
 31
0.0
  0
TEXT
  5
49C
330
48A
100
AcDbEntity
  8
1
  6
Continuous
 62
     7
370
     9
100
AcDbText
 10
4037.274066103121
 20
1954.21052631579
 30
0.0
 40
100.0
  1
75
 50
89.9999999999999
 41
0.7
100
AcDbText
  0
ENDBLK
  5
48C
330
48A
100
AcDbEntity
  8
0
100
AcDbBlockEnd
  0
BLOCK
  5
49F
330
49E
100
AcDbEntity
  8
0
100
AcDbBlockBegin
  2
Dim36
 70
     0
 71
     0
 10
0.0
 20
0.0
 30
0.0
  3
Dim36
  1

  0
LINE
  5
4A1
330
49E
100
AcDbEntity
  8
1
  6
Continuous
 62
     7
370
     9
100
AcDbLine
 10
5937.27406610312
 20
2120.0
 30
0.0
 11
5937.27406610312
 21
1840.0
 31
0.0
  0
LINE
  5
4A2
330
49E
100
AcDbEntity
  8
1
  6
Continuous
 62
     7
370
     9
100
AcDbLine
 10
5897.27406610312
 20
1955.0
 30
0.0
 11
6067.274066103122
 21
1955.0
 31
0.0
  0
LINE
  5
4A3
330
49E
100
AcDbEntity
  8
1
  6
Continuous
 62
     7
370
     9
100
AcDbLine
 10
5897.27406610312
 20
1880.0
 30
0.0
 11
6061.773550107249
 21
1880.0
 31
0.0
  0
LINE
  5
4A4
330
49E
100
AcDbEntity
  8
1
  6
Continuous
 62
     7
370
     9
100
AcDbLine
 10
5937.27406610312
 20
1955.0
 30
0.0
 11
5926.92130429902
 21
1993.637033051562
 31
0.0
  0
LINE
  5
4A5
330
49E
100
AcDbEntity
  8
1
  6
Continuous
 62
     7
370
     9
100
AcDbLine
 10
5937.27406610312
 20
1955.0
 30
0.0
 11
5947.626827907221
 21
1993.637033051562
 31
0.0
  0
LINE
  5
4A6
330
49E
100
AcDbEntity
  8
1
  6
Continuous
 62
     7
370
     9
100
AcDbLine
 10
5926.92130429902
 20
1993.637033051562
 30
0.0
 11
5947.626827907221
 21
1993.637033051562
 31
0.0
  0
LINE
  5
4A7
330
49E
100
AcDbEntity
  8
1
  6
Continuous
 62
     7
370
     9
100
AcDbLine
 10
5937.27406610312
 20
1964.65925826289
 30
0.0
 11
5932.09768520107
 21
1983.977774788672
 31
0.0
  0
LINE
  5
4A8
330
49E
100
AcDbEntity
  8
1
  6
Continuous
 62
     7
370
     9
100
AcDbLine
 10
5937.27406610312
 20
1964.65925826289
 30
0.0
 11
5942.450447005171
 21
1983.977774788672
 31
0.0
  0
LINE
  5
4A9
330
49E
100
AcDbEntity
  8
1
  6
Continuous
 62
     7
370
     9
100
AcDbLine
 10
5932.09768520107
 20
1983.977774788672
 30
0.0
 11
5942.450447005171
 21
1983.977774788672
 31
0.0
  0
LINE
  5
4AA
330
49E
100
AcDbEntity
  8
1
  6
Continuous
 62
     7
370
     9
100
AcDbLine
 10
5937.27406610312
 20
1880.0
 30
0.0
 11
5947.626827907221
 21
1841.362966948437
 31
0.0
  0
LINE
  5
4AB
330
49E
100
AcDbEntity
  8
1
  6
Continuous
 62
     7
370
     9
100
AcDbLine
 10
5937.27406610312
 20
1880.0
 30
0.0
 11
5926.92130429902
 21
1841.362966948437
 31
0.0
  0
LINE
  5
4AC
330
49E
100
AcDbEntity
  8
1
  6
Continuous
 62
     7
370
     9
100
AcDbLine
 10
5947.626827907221
 20
1841.362966948437
 30
0.0
 11
5926.92130429902
 21
1841.362966948437
 31
0.0
  0
LINE
  5
4AD
330
49E
100
AcDbEntity
  8
1
  6
Continuous
 62
     7
370
     9
100
AcDbLine
 10
5937.27406610312
 20
1870.340741737109
 30
0.0
 11
5942.450447005171
 21
1851.022225211328
 31
0.0
  0
LINE
  5
4AE
330
49E
100
AcDbEntity
  8
1
  6
Continuous
 62
     7
370
     9
100
AcDbLine
 10
5937.27406610312
 20
1870.340741737109
 30
0.0
 11
5932.09768520107
 21
1851.022225211328
 31
0.0
  0
LINE
  5
4AF
330
49E
100
AcDbEntity
  8
1
  6
Continuous
 62
     7
370
     9
100
AcDbLine
 10
5942.450447005171
 20
1851.022225211328
 30
0.0
 11
5932.09768520107
 21
1851.022225211328
 31
0.0
  0
TEXT
  5
4B0
330
49E
100
AcDbEntity
  8
1
  6
Continuous
 62
     7
370
     9
100
AcDbText
 10
5933.816893760501
 20
1970.0
 30
0.0
 40
100.0
  1
75
 50
89.9999999999999
 41
0.7
100
AcDbText
  0
ENDBLK
  5
4A0
330
49E
100
AcDbEntity
  8
0
100
AcDbBlockEnd
  0
BLOCK
  5
4C3
330
4C2
100
AcDbEntity
  8
0
100
AcDbBlockBegin
  2
Dim37
 70
     0
 71
     0
 10
0.0
 20
0.0
 30
0.0
  3
Dim37
  1

  0
LINE
  5
4C5
330
4C2
100
AcDbEntity
  8
1
  6
Continuous
 62
     7
370
     9
100
AcDbLine
 10
6176.274066103122
 20
1770.0
 30
0.0
 11
6038.274066103122
 21
1770.0
 31
0.0
  0
LINE
  5
4C6
330
4C2
100
AcDbEntity
  8
1
  6
Continuous
 62
     7
370
     9
100
AcDbLine
 10
6136.274066103122
 20
1730.0
 30
0.0
 11
6136.274066103122
 21
1915.0
 31
0.0
  0
LINE
  5
4C7
330
4C2
100
AcDbEntity
  8
1
  6
Continuous
 62
     7
370
     9
100
AcDbLine
 10
6078.274066103122
 20
1730.0
 30
0.0
 11
6078.274066103122
 21
1915.0
 31
0.0
  0
LINE
  5
4C8
330
4C2
100
AcDbEntity
  8
1
  6
Continuous
 62
     7
370
     9
100
AcDbLine
 10
6136.274066103122
 20
1770.0
 30
0.0
 11
6174.911099154685
 21
1780.352761804101
 31
0.0
  0
LINE
  5
4C9
330
4C2
100
AcDbEntity
  8
1
  6
Continuous
 62
     7
370
     9
100
AcDbLine
 10
6136.274066103122
 20
1770.0
 30
0.0
 11
6174.911099154685
 21
1759.647238195899
 31
0.0
  0
LINE
  5
4CA
330
4C2
100
AcDbEntity
  8
1
  6
Continuous
 62
     7
370
     9
100
AcDbLine
 10
6174.911099154685
 20
1780.352761804101
 30
0.0
 11
6174.911099154685
 21
1759.647238195899
 31
0.0
  0
LINE
  5
4CB
330
4C2
100
AcDbEntity
  8
1
  6
Continuous
 62
     7
370
     9
100
AcDbLine
 10
6145.933324366013
 20
1770.0
 30
0.0
 11
6165.251840891794
 21
1775.17638090205
 31
0.0
  0
LINE
  5
4CC
330
4C2
100
AcDbEntity
  8
1
  6
Continuous
 62
     7
370
     9
100
AcDbLine
 10
6145.933324366013
 20
1770.0
 30
0.0
 11
6165.251840891794
 21
1764.823619097949
 31
0.0
  0
LINE
  5
4CD
330
4C2
100
AcDbEntity
  8
1
  6
Continuous
 62
     7
370
     9
100
AcDbLine
 10
6165.251840891794
 20
1775.17638090205
 30
0.0
 11
6165.251840891794
 21
1764.823619097949
 31
0.0
  0
LINE
  5
4CE
330
4C2
100
AcDbEntity
  8
1
  6
Continuous
 62
     7
370
     9
100
AcDbLine
 10
6078.274066103122
 20
1770.0
 30
0.0
 11
6039.637033051559
 21
1759.647238195899
 31
0.0
  0
LINE
  5
4CF
330
4C2
100
AcDbEntity
  8
1
  6
Continuous
 62
     7
370
     9
100
AcDbLine
 10
6078.274066103122
 20
1770.0
 30
0.0
 11
6039.637033051559
 21
1780.352761804101
 31
0.0
  0
LINE
  5
4D0
330
4C2
100
AcDbEntity
  8
1
  6
Continuous
 62
     7
370
     9
100
AcDbLine
 10
6039.637033051559
 20
1759.647238195899
 30
0.0
 11
6039.637033051559
 21
1780.352761804101
 31
0.0
  0
LINE
  5
4D1
330
4C2
100
AcDbEntity
  8
1
  6
Continuous
 62
     7
370
     9
100
AcDbLine
 10
6068.614807840231
 20
1770.0
 30
0.0
 11
6049.29629131445
 21
1764.82361909795
 31
0.0
  0
LINE
  5
4D2
330
4C2
100
AcDbEntity
  8
1
  6
Continuous
 62
     7
370
     9
100
AcDbLine
 10
6068.614807840231
 20
1770.0
 30
0.0
 11
6049.29629131445
 21
1775.176380902051
 31
0.0
  0
LINE
  5
4D3
330
4C2
100
AcDbEntity
  8
1
  6
Continuous
 62
     7
370
     9
100
AcDbLine
 10
6049.29629131445
 20
1764.82361909795
 30
0.0
 11
6049.29629131445
 21
1775.176380902051
 31
0.0
  0
TEXT
  5
4D4
330
4C2
100
AcDbEntity
  8
1
  6
Continuous
 62
     7
370
     9
100
AcDbText
 10
5987.274066103122
 20
1770.0
 30
0.0
 40
100.0
  1
\M+183D358
 50
-0.0000000000001018
 41
1.4
100
AcDbText
  0
ENDBLK
  5
4C4
330
4C2
100
AcDbEntity
  8
0
100
AcDbBlockEnd
  0
BLOCK
  5
4D7
330
4D6
100
AcDbEntity
  8
0
100
AcDbBlockBegin
  2
Dim38
 70
     0
 71
     0
 10
0.0
 20
0.0
 30
0.0
  3
Dim38
  1

  0
LINE
  5
4D9
330
4D6
100
AcDbEntity
  8
1
  6
Continuous
 62
     7
370
     9
100
AcDbLine
 10
1668.274066103121
 20
1610.0
 30
0.0
 11
1806.274066103121
 21
1610.0
 31
0.0
  0
LINE
  5
4DA
330
4D6
100
AcDbEntity
  8
1
  6
Continuous
 62
     7
370
     9
100
AcDbLine
 10
1708.274066103121
 20
1650.0
 30
0.0
 11
1708.274066103121
 21
1490.0
 31
0.0
  0
LINE
  5
4DB
330
4D6
100
AcDbEntity
  8
1
  6
Continuous
 62
     7
370
     9
100
AcDbLine
 10
1766.274066103121
 20
1650.0
 30
0.0
 11
1766.274066103121
 21
1490.0
 31
0.0
  0
LINE
  5
4DC
330
4D6
100
AcDbEntity
  8
1
  6
Continuous
 62
     7
370
     9
100
AcDbLine
 10
1708.274066103121
 20
1610.0
 30
0.0
 11
1669.637033051558
 21
1599.6472381959
 31
0.0
  0
LINE
  5
4DD
330
4D6
100
AcDbEntity
  8
1
  6
Continuous
 62
     7
370
     9
100
AcDbLine
 10
1708.274066103121
 20
1610.0
 30
0.0
 11
1669.637033051559
 21
1620.352761804101
 31
0.0
  0
LINE
  5
4DE
330
4D6
100
AcDbEntity
  8
1
  6
Continuous
 62
     7
370
     9
100
AcDbLine
 10
1669.637033051558
 20
1599.6472381959
 30
0.0
 11
1669.637033051559
 21
1620.352761804101
 31
0.0
  0
LINE
  5
4DF
330
4D6
100
AcDbEntity
  8
1
  6
Continuous
 62
     7
370
     9
100
AcDbLine
 10
1698.61480784023
 20
1610.0
 30
0.0
 11
1679.296291314449
 21
1604.82361909795
 31
0.0
  0
LINE
  5
4E0
330
4D6
100
AcDbEntity
  8
1
  6
Continuous
 62
     7
370
     9
100
AcDbLine
 10
1698.61480784023
 20
1610.0
 30
0.0
 11
1679.296291314449
 21
1615.176380902051
 31
0.0
  0
LINE
  5
4E1
330
4D6
100
AcDbEntity
  8
1
  6
Continuous
 62
     7
370
     9
100
AcDbLine
 10
1679.296291314449
 20
1604.82361909795
 30
0.0
 11
1679.296291314449
 21
1615.176380902051
 31
0.0
  0
LINE
  5
4E2
330
4D6
100
AcDbEntity
  8
1
  6
Continuous
 62
     7
370
     9
100
AcDbLine
 10
1766.274066103121
 20
1610.0
 30
0.0
 11
1804.911099154684
 21
1620.352761804101
 31
0.0
  0
LINE
  5
4E3
330
4D6
100
AcDbEntity
  8
1
  6
Continuous
 62
     7
370
     9
100
AcDbLine
 10
1766.274066103121
 20
1610.0
 30
0.0
 11
1804.911099154684
 21
1599.647238195899
 31
0.0
  0
LINE
  5
4E4
330
4D6
100
AcDbEntity
  8
1
  6
Continuous
 62
     7
370
     9
100
AcDbLine
 10
1804.911099154684
 20
1620.352761804101
 30
0.0
 11
1804.911099154684
 21
1599.647238195899
 31
0.0
  0
LINE
  5
4E5
330
4D6
100
AcDbEntity
  8
1
  6
Continuous
 62
     7
370
     9
100
AcDbLine
 10
1775.933324366012
 20
1610.0
 30
0.0
 11
1795.251840891793
 21
1615.17638090205
 31
0.0
  0
LINE
  5
4E6
330
4D6
100
AcDbEntity
  8
1
  6
Continuous
 62
     7
370
     9
100
AcDbLine
 10
1775.933324366012
 20
1610.0
 30
0.0
 11
1795.251840891793
 21
1604.82361909795
 31
0.0
  0
LINE
  5
4E7
330
4D6
100
AcDbEntity
  8
1
  6
Continuous
 62
     7
370
     9
100
AcDbLine
 10
1795.251840891793
 20
1615.17638090205
 30
0.0
 11
1795.251840891793
 21
1604.82361909795
 31
0.0
  0
TEXT
  5
4E8
330
4D6
100
AcDbEntity
  8
1
  6
Continuous
 62
     7
370
     9
100
AcDbText
 10
1617.274066103121
 20
1610.0
 30
0.0
 40
100.0
  1
\M+183D358
 50
-0.0000000000001965
 41
1.4
100
AcDbText
  0
ENDBLK
  5
4D8
330
4D6
100
AcDbEntity
  8
0
100
AcDbBlockEnd
  0
BLOCK
  5
4EB
330
4EA
100
AcDbEntity
  8
0
100
AcDbBlockBegin
  2
Dim39
 70
     0
 71
     0
 10
0.0
 20
0.0
 30
0.0
  3
Dim39
  1

  0
LINE
  5
4ED
330
4EA
100
AcDbEntity
  8
1
  6
Continuous
 62
     7
370
     9
100
AcDbLine
 10
2506.27406610312
 20
1749.999999999999
 30
0.0
 11
2368.27406610312
 21
1750.0
 31
0.0
  0
LINE
  5
4EE
330
4EA
100
AcDbEntity
  8
1
  6
Continuous
 62
     7
370
     9
100
AcDbLine
 10
2466.27406610312
 20
1710.0
 30
0.0
 11
2466.274066103121
 21
1915.0
 31
0.0
  0
LINE
  5
4EF
330
4EA
100
AcDbEntity
  8
1
  6
Continuous
 62
     7
370
     9
100
AcDbLine
 10
2408.27406610312
 20
1710.0
 30
0.0
 11
2408.274066103121
 21
1915.0
 31
0.0
  0
LINE
  5
4F0
330
4EA
100
AcDbEntity
  8
1
  6
Continuous
 62
     7
370
     9
100
AcDbLine
 10
2466.27406610312
 20
1750.0
 30
0.0
 11
2504.911099154683
 21
1760.3527618041
 31
0.0
  0
LINE
  5
4F1
330
4EA
100
AcDbEntity
  8
1
  6
Continuous
 62
     7
370
     9
100
AcDbLine
 10
2466.27406610312
 20
1750.0
 30
0.0
 11
2504.911099154683
 21
1739.647238195898
 31
0.0
  0
LINE
  5
4F2
330
4EA
100
AcDbEntity
  8
1
  6
Continuous
 62
     7
370
     9
100
AcDbLine
 10
2504.911099154683
 20
1760.3527618041
 30
0.0
 11
2504.911099154683
 21
1739.647238195898
 31
0.0
  0
LINE
  5
4F3
330
4EA
100
AcDbEntity
  8
1
  6
Continuous
 62
     7
370
     9
100
AcDbLine
 10
2475.93332436601
 20
1750.0
 30
0.0
 11
2495.251840891792
 21
1755.17638090205
 31
0.0
  0
LINE
  5
4F4
330
4EA
100
AcDbEntity
  8
1
  6
Continuous
 62
     7
370
     9
100
AcDbLine
 10
2475.93332436601
 20
1750.0
 30
0.0
 11
2495.251840891792
 21
1744.823619097949
 31
0.0
  0
LINE
  5
4F5
330
4EA
100
AcDbEntity
  8
1
  6
Continuous
 62
     7
370
     9
100
AcDbLine
 10
2495.251840891792
 20
1755.17638090205
 30
0.0
 11
2495.251840891792
 21
1744.823619097949
 31
0.0
  0
LINE
  5
4F6
330
4EA
100
AcDbEntity
  8
1
  6
Continuous
 62
     7
370
     9
100
AcDbLine
 10
2408.27406610312
 20
1750.0
 30
0.0
 11
2369.637033051557
 21
1739.647238195899
 31
0.0
  0
LINE
  5
4F7
330
4EA
100
AcDbEntity
  8
1
  6
Continuous
 62
     7
370
     9
100
AcDbLine
 10
2408.27406610312
 20
1750.0
 30
0.0
 11
2369.637033051557
 21
1760.352761804101
 31
0.0
  0
LINE
  5
4F8
330
4EA
100
AcDbEntity
  8
1
  6
Continuous
 62
     7
370
     9
100
AcDbLine
 10
2369.637033051557
 20
1739.647238195899
 30
0.0
 11
2369.637033051557
 21
1760.352761804101
 31
0.0
  0
LINE
  5
4F9
330
4EA
100
AcDbEntity
  8
1
  6
Continuous
 62
     7
370
     9
100
AcDbLine
 10
2398.614807840229
 20
1750.0
 30
0.0
 11
2379.296291314448
 21
1744.82361909795
 31
0.0
  0
LINE
  5
4FA
330
4EA
100
AcDbEntity
  8
1
  6
Continuous
 62
     7
370
     9
100
AcDbLine
 10
2398.614807840229
 20
1750.0
 30
0.0
 11
2379.296291314448
 21
1755.176380902051
 31
0.0
  0
LINE
  5
4FB
330
4EA
100
AcDbEntity
  8
1
  6
Continuous
 62
     7
370
     9
100
AcDbLine
 10
2379.296291314448
 20
1744.82361909795
 30
0.0
 11
2379.296291314448
 21
1755.176380902051
 31
0.0
  0
TEXT
  5
4FC
330
4EA
100
AcDbEntity
  8
1
  6
Continuous
 62
     7
370
     9
100
AcDbText
 10
2317.27406610312
 20
1750.0
 30
0.0
 40
100.0
  1
\M+183D358
 50
-0.0000000000001018
 41
1.4
100
AcDbText
  0
ENDBLK
  5
4EC
330
4EA
100
AcDbEntity
  8
0
100
AcDbBlockEnd
  0
BLOCK
  5
51A
330
519
100
AcDbEntity
  8
0
100
AcDbBlockBegin
  2
*G84
 70
     1
 71
     0
 10
0.0
 20
0.0
 30
0.0
  3
*G84
  1

  0
LINE
  5
51C
330
519
100
AcDbEntity
  8
1
  6
Continuous
 62
     7
370
    30
100
AcDbLine
 10
6902.77406610312
 20
1668.0
 30
0.0
 11
6902.77406610312
 21
1518.0
 31
0.0
  0
LINE
  5
51D
330
519
100
AcDbEntity
  8
1
  6
Continuous
 62
     7
370
    30
100
AcDbLine
 10
6902.77406610312
 20
1518.0
 30
0.0
 11
6934.77406610312
 21
1518.0
 31
0.0
  0
LINE
  5
51E
330
519
100
AcDbEntity
  8
1
  6
Continuous
 62
     7
370
    30
100
AcDbLine
 10
6934.77406610312
 20
1518.0
 30
0.0
 11
6934.77406610312
 21
1668.0
 31
0.0
  0
LINE
  5
51F
330
519
100
AcDbEntity
  8
1
  6
Continuous
 62
     7
370
    30
100
AcDbLine
 10
6934.77406610312
 20
1668.0
 30
0.0
 11
6902.77406610312
 21
1668.0
 31
0.0
  0
ENDBLK
  5
51B
330
519
100
AcDbEntity
  8
0
100
AcDbBlockEnd
  0
BLOCK
  5
525
330
524
100
AcDbEntity
  8
0
100
AcDbBlockBegin
  2
Dim40
 70
     0
 71
     0
 10
0.0
 20
0.0
 30
0.0
  3
Dim40
  1

  0
LINE
  5
527
330
524
100
AcDbEntity
  8
1
  6
Continuous
 62
     7
370
    30
100
AcDbLine
 10
6628.774066103118
 20
1605.0
 30
0.0
 11
6628.774066103118
 21
1518.0
 31
0.0
  0
LINE
  5
528
330
524
100
AcDbEntity
  8
1
  6
Continuous
 62
     7
370
    30
100
AcDbLine
 10
6588.774066103118
 20
1605.0
 30
0.0
 11
6702.27406610312
 21
1605.0
 31
0.0
  0
LINE
  5
529
330
524
100
AcDbEntity
  8
1
  6
Continuous
 62
     7
370
    30
100
AcDbLine
 10
6588.774066103118
 20
1518.0
 30
0.0
 11
6690.435479508193
 21
1518.0
 31
0.0
  0
CIRCLE
  5
52A
330
524
100
AcDbEntity
  8
1
  6
Continuous
 62
     7
370
    30
100
AcDbCircle
 10
6628.774066103118
 20
1605.0
 30
0.0
 40
6.0
  0
CIRCLE
  5
52B
330
524
100
AcDbEntity
  8
1
  6
Continuous
 62
     7
370
    30
100
AcDbCircle
 10
6628.774066103118
 20
1605.0
 30
0.0
 40
3.0
  0
CIRCLE
  5
52C
330
524
100
AcDbEntity
  8
1
  6
Continuous
 62
     7
370
    30
100
AcDbCircle
 10
6628.774066103118
 20
1518.0
 30
0.0
 40
6.0
  0
CIRCLE
  5
52D
330
524
100
AcDbEntity
  8
1
  6
Continuous
 62
     7
370
    30
100
AcDbCircle
 10
6628.774066103118
 20
1518.0
 30
0.0
 40
3.0
  0
TEXT
  5
52E
330
524
100
AcDbEntity
  8
1
  6
Continuous
 62
     7
370
     9
100
AcDbText
 10
6628.774066103118
 20
1521.5
 30
0.0
 40
80.0
  1
87
 50
89.9999999999999
 41
0.5
 51
14.99999999999999
100
AcDbText
  0
ENDBLK
  5
526
330
524
100
AcDbEntity
  8
0
100
AcDbBlockEnd
  0
BLOCK
  5
532
330
531
100
AcDbEntity
  8
0
100
AcDbBlockBegin
  2
*G86
 70
     1
 71
     0
 10
0.0
 20
0.0
 30
0.0
  3
*G86
  1

  0
LINE
  5
534
330
531
100
AcDbEntity
  8
1
  6
Continuous
 62
     7
370
    30
100
AcDbLine
 10
6548.774066103118
 20
1518.0
 30
0.0
 11
6548.774066103118
 21
1218.0
 31
0.0
  0
LINE
  5
535
330
531
100
AcDbEntity
  8
1
  6
Continuous
 62
     7
370
    30
100
AcDbLine
 10
6548.774066103118
 20
1218.0
 30
0.0
 11
6848.774066103118
 21
1218.0
 31
0.0
  0
LINE
  5
536
330
531
100
AcDbEntity
  8
1
  6
Continuous
 62
     7
370
    30
100
AcDbLine
 10
6848.774066103118
 20
1218.0
 30
0.0
 11
6848.774066103118
 21
1518.0
 31
0.0
  0
LINE
  5
537
330
531
100
AcDbEntity
  8
1
  6
Continuous
 62
     7
370
    30
100
AcDbLine
 10
6848.774066103118
 20
1518.0
 30
0.0
 11
6548.774066103118
 21
1518.0
 31
0.0
  0
ENDBLK
  5
533
330
531
100
AcDbEntity
  8
0
100
AcDbBlockEnd
  0
BLOCK
  5
53A
330
539
100
AcDbEntity
  8
0
100
AcDbBlockBegin
  2
*G87
 70
     1
 71
     0
 10
0.0
 20
0.0
 30
0.0
  3
*G87
  1

  0
LINE
  5
53C
330
539
100
AcDbEntity
  8
1
  6
DASHDOT
 62
     7
370
     9
100
AcDbLine
 10
6548.774066103118
 20
1518.0
 30
0.0
 11
6548.774066103118
 21
1218.0
 31
0.0
  0
LINE
  5
53D
330
539
100
AcDbEntity
  8
1
  6
DASHDOT
 62
     7
370
     9
100
AcDbLine
 10
6548.774066103118
 20
1218.0
 30
0.0
 11
6848.774066103118
 21
1218.0
 31
0.0
  0
LINE
  5
53E
330
539
100
AcDbEntity
  8
1
  6
DASHDOT
 62
     7
370
     9
100
AcDbLine
 10
6848.774066103118
 20
1218.0
 30
0.0
 11
6848.774066103118
 21
1518.0
 31
0.0
  0
LINE
  5
53F
330
539
100
AcDbEntity
  8
1
  6
DASHDOT
 62
     7
370
     9
100
AcDbLine
 10
6848.774066103118
 20
1518.0
 30
0.0
 11
6548.774066103118
 21
1518.0
 31
0.0
  0
ENDBLK
  5
53B
330
539
100
AcDbEntity
  8
0
100
AcDbBlockEnd
  0
BLOCK
  5
570
330
56F
100
AcDbEntity
  8
0
100
AcDbBlockBegin
  2
*G88
 70
     1
 71
     0
 10
0.0
 20
0.0
 30
0.0
  3
*G88
  1

  0
LINE
  5
572
330
56F
100
AcDbEntity
  8
1
  6
Continuous
 62
     7
370
    30
100
AcDbLine
 10
2337.274066103121
 20
1880.0
 30
0.0
 11
3937.274066103121
 21
1880.0
 31
0.0
  0
LINE
  5
573
330
56F
100
AcDbEntity
  8
1
  6
Continuous
 62
     7
370
    30
100
AcDbLine
 10
2337.274066103121
 20
1880.0
 30
0.0
 11
2337.274066103121
 21
2020.0
 31
0.0
  0
LINE
  5
574
330
56F
100
AcDbEntity
  8
1
  6
Continuous
 62
     7
370
    30
100
AcDbLine
 10
2347.274066103121
 20
2030.0
 30
0.0
 11
2337.274066103121
 21
2020.0
 31
0.0
  0
LINE
  5
575
330
56F
100
AcDbEntity
  8
1
  6
Continuous
 62
     7
370
    30
100
AcDbLine
 10
3937.274066103121
 20
1880.0
 30
0.0
 11
3937.274066103121
 21
2020.0
 31
0.0
  0
LINE
  5
576
330
56F
100
AcDbEntity
  8
1
  6
Continuous
 62
     7
370
    30
100
AcDbLine
 10
2347.274066103121
 20
2030.0
 30
0.0
 11
3927.274066103121
 21
2030.0
 31
0.0
  0
LINE
  5
577
330
56F
100
AcDbEntity
  8
1
  6
Continuous
 62
     7
370
    30
100
AcDbLine
 10
3937.274066103121
 20
2020.0
 30
0.0
 11
3927.274066103121
 21
2030.0
 31
0.0
  0
ENDBLK
  5
571
330
56F
100
AcDbEntity
  8
0
100
AcDbBlockEnd
  0
ENDSEC
  0
SECTION
  2
ENTITIES
  0
LINE
  5
96
330
1F
100
AcDbEntity
  8
1
  6
Continuous
 62
     7
370
     9
100
AcDbLine
 10
1537.274066103121
 20
1580.0
 30
0.0
 11
1587.274066103121
 21
1680.0
 31
0.0
  0
CIRCLE
  5
97
330
1F
100
AcDbEntity
  8
1
  6
Continuous
 62
     7
370
     9
100
AcDbCircle
 10
6937.27406610312
 20
1730.0
 30
0.0
 40
14.0
  0
CIRCLE
  5
98
330
1F
100
AcDbEntity
  8
1
  6
Continuous
 62
     7
370
     9
100
AcDbCircle
 10
6937.27406610312
 20
1605.0
 30
0.0
 40
14.0
  0
CIRCLE
  5
99
330
1F
100
AcDbEntity
  8
1
  6
Continuous
 62
     7
370
     9
100
AcDbCircle
 10
6937.27406610312
 20
1855.0
 30
0.0
 40
14.0
  0
CIRCLE
  5
9A
330
1F
100
AcDbEntity
  8
1
  6
Continuous
 62
     7
370
    30
100
AcDbCircle
 10
6937.27406610312
 20
1855.0
 30
0.0
 40
14.0
  0
LINE
  5
9B
330
1F
100
AcDbEntity
  8
1
  6
Continuous
 62
     7
370
    30
100
AcDbLine
 10
6287.27406610312
 20
1930.0
 30
0.0
 11
6287.27406610312
 21
1880.0
 31
0.0
  0
LINE
  5
9C
330
1F
100
AcDbEntity
  8
1
  6
Continuous
 62
     7
370
    30
100
AcDbLine
 10
6287.27406610312
 20
1880.0
 30
0.0
 11
6587.27406610312
 21
1880.0
 31
0.0
  0
LINE
  5
9D
330
1F
100
AcDbEntity
  8
1
  6
Continuous
 62
     7
370
    30
100
AcDbLine
 10
6587.27406610312
 20
1880.0
 30
0.0
 11
6587.27406610312
 21
1930.0
 31
0.0
  0
LINE
  5
9E
330
1F
100
AcDbEntity
  8
1
  6
Continuous
 62
     7
370
    30
100
AcDbLine
 10
6587.27406610312
 20
1930.0
 30
0.0
 11
6287.27406610312
 21
1930.0
 31
0.0
  0
DIMENSION
  5
B2
330
1F
100
AcDbEntity
  8
1
  6
Continuous
 62
     7
370
     9
100
AcDbDimension
  2
Dim1
 10
7413.774066103118
 20
4766.217391304349
 30
0.0
 11
7363.774066103118
 21
4006.217391304349
 31
0.0
 70
   160
  1
<>
 71
     5
 42
-1.0
  3
Standard
100
AcDbAlignedDimension
 13
7148.774066103118
 23
4766.217391304348
 33
0.0
 14
7148.774066103118
 24
3246.217391304348
 34
0.0
 50
89.9999999999999
100
AcDbRotatedDimension
1001
ACAD
1000
DSTYLE
1002
{
1070
   344
1005
0
1070
   343
1005
0
1070
   173
1070
     1
1070
   289
1070
     2
1070
   279
1070
     2
1070
   288
1070
     1
1070
    77
1070
     3
1070
   172
1070
     1
1070
   174
1070
     0
1070
    74
1070
     0
1070
    73
1070
     0
1070
   284
1070
     8
1070
    78
1070
     8
1070
   140
1040
4.0
1070
    40
1040
20.0
1070
    42
1040
2.0
1070
    44
1040
2.0
1070
    43
1040
10.0
1070
   271
1070
     2
1070
    41
1040
4.0
1002
}
  0
DIMENSION
  5
C6
330
1F
100
AcDbEntity
  8
1
  6
Continuous
 62
     7
370
     9
100
AcDbDimension
  2
Dim2
 10
5857.27406610312
 20
3576.217391304349
 30
0.0
 11
5807.27406610312
 21
3675.17867027577
 31
0.0
 70
   160
  1
<>
 71
     5
 42
-1.0
  3
Standard
100
AcDbAlignedDimension
 13
5957.27406610312
 23
3576.217391304348
 33
0.0
 14
5957.27406610312
 24
3608.217391304348
 34
0.0
 50
89.99999999999991
100
AcDbRotatedDimension
1001
ACAD
1000
DSTYLE
1002
{
1070
   344
1005
0
1070
   343
1005
0
1070
   173
1070
     1
1070
   289
1070
     2
1070
   279
1070
     2
1070
   288
1070
     1
1070
    77
1070
     3
1070
   172
1070
     1
1070
   174
1070
     0
1070
    74
1070
     0
1070
    73
1070
     0
1070
   284
1070
     8
1070
    78
1070
     8
1070
   140
1040
4.0
1070
    40
1040
20.0
1070
    42
1040
2.0
1070
    44
1040
2.0
1070
    43
1040
10.0
1070
   271
1070
     2
1070
    41
1040
4.0
1002
}
  0
INSERT
  5
CE
330
1F
100
AcDbEntity
  8
0
100
AcDbBlockReference
  2
*G14
 10
0.0
 20
0.0
 30
0.0
  0
LINE
  5
CF
330
1F
100
AcDbEntity
  8
1
  6
Continuous
 62
     7
370
    30
100
AcDbLine
 10
6107.27406610312
 20
3608.217391304348
 30
0.0
 11
6107.27406610312
 21
3576.217391304348
 31
0.0
  0
INSERT
  5
D7
330
1F
100
AcDbEntity
  8
0
100
AcDbBlockReference
  2
*G15
 10
0.0
 20
0.0
 30
0.0
  0
INSERT
  5
DF
330
1F
100
AcDbEntity
  8
0
100
AcDbBlockReference
  2
*G16
 10
0.0
 20
0.0
 30
0.0
  0
INSERT
  5
E7
330
1F
100
AcDbEntity
  8
0
100
AcDbBlockReference
  2
*G17
 10
0.0
 20
0.0
 30
0.0
  0
INSERT
  5
EF
330
1F
100
AcDbEntity
  8
0
100
AcDbBlockReference
  2
*G18
 10
0.0
 20
0.0
 30
0.0
  0
LINE
  5
F0
330
1F
100
AcDbEntity
  8
1
  6
Continuous
 62
     7
370
    30
100
AcDbLine
 10
6107.27406610312
 20
4436.217391304349
 30
0.0
 11
6107.27406610312
 21
4404.217391304348
 31
0.0
  0
INSERT
  5
F8
330
1F
100
AcDbEntity
  8
0
100
AcDbBlockReference
  2
*G19
 10
0.0
 20
0.0
 30
0.0
  0
DIMENSION
  5
10C
330
1F
100
AcDbEntity
  8
1
  6
Continuous
 62
     7
370
     9
100
AcDbDimension
  2
Dim3
 10
4062.274066103118
 20
3576.217391304348
 30
0.0
 11
4012.274066103118
 21
3679.772602862655
 31
0.0
 70
   160
  1
<>
 71
     5
 42
-1.0
  3
Standard
100
AcDbAlignedDimension
 13
3962.274066103118
 23
3576.217391304348
 33
0.0
 14
3962.274066103118
 24
3608.217391304348
 34
0.0
 50
89.99999999999991
100
AcDbRotatedDimension
1001
ACAD
1000
DSTYLE
1002
{
1070
   344
1005
0
1070
   343
1005
0
1070
   173
1070
     1
1070
   289
1070
     2
1070
   279
1070
     2
1070
   288
1070
     1
1070
    77
1070
     3
1070
   172
1070
     1
1070
   174
1070
     0
1070
    74
1070
     0
1070
    73
1070
     0
1070
   284
1070
     8
1070
    78
1070
     8
1070
   140
1040
4.0
1070
    40
1040
20.0
1070
    42
1040
2.0
1070
    44
1040
2.0
1070
    43
1040
10.0
1070
   271
1070
     2
1070
    41
1040
4.0
1002
}
  0
DIMENSION
  5
120
330
1F
100
AcDbEntity
  8
1
  6
Continuous
 62
     7
370
     9
100
AcDbDimension
  2
Dim4
 10
2062.274066103118
 20
3166.217391304348
 30
0.0
 11
2012.274066103118
 21
3260.066816064506
 31
0.0
 70
   160
  1
<>
 71
     5
 42
-1.0
  3
Standard
100
AcDbAlignedDimension
 13
1962.274066103118
 23
3166.217391304348
 33
0.0
 14
1962.274066103118
 24
3198.217391304348
 34
0.0
 50
89.99999999999991
100
AcDbRotatedDimension
1001
ACAD
1000
DSTYLE
1002
{
1070
   344
1005
0
1070
   343
1005
0
1070
   173
1070
     1
1070
   289
1070
     2
1070
   279
1070
     2
1070
   288
1070
     1
1070
    77
1070
     3
1070
   172
1070
     1
1070
   174
1070
     0
1070
    74
1070
     0
1070
    73
1070
     0
1070
   284
1070
     8
1070
    78
1070
     8
1070
   140
1040
4.0
1070
    40
1040
20.0
1070
    42
1040
2.0
1070
    44
1040
2.0
1070
    43
1040
10.0
1070
   271
1070
     2
1070
    41
1040
4.0
1002
}
  0
DIMENSION
  5
134
330
1F
100
AcDbEntity
  8
1
  6
Continuous
 62
     7
370
     9
100
AcDbDimension
  2
Dim5
 10
1262.274066103118
 20
3156.217391304349
 30
0.0
 11
1212.274066103118
 21
4006.217391304349
 31
0.0
 70
   160
  1
<>
 71
     5
 42
-1.0
  3
Standard
100
AcDbAlignedDimension
 13
1612.274066103118
 23
3156.217391304348
 33
0.0
 14
1612.274066103118
 24
4856.217391304348
 34
0.0
 50
89.99999999999991
100
AcDbRotatedDimension
1001
ACAD
1000
DSTYLE
1002
{
1070
   344
1005
0
1070
   343
1005
0
1070
   173
1070
     1
1070
   289
1070
     2
1070
   279
1070
     2
1070
   288
1070
     1
1070
    77
1070
     3
1070
   172
1070
     1
1070
   174
1070
     0
1070
    74
1070
     0
1070
    73
1070
     0
1070
   284
1070
     8
1070
    78
1070
     8
1070
   140
1040
4.0
1070
    40
1040
20.0
1070
    42
1040
2.0
1070
    44
1040
2.0
1070
    43
1040
10.0
1070
   271
1070
     2
1070
    41
1040
4.0
1002
}
  0
DIMENSION
  5
148
330
1F
100
AcDbEntity
  8
1
  6
Continuous
 62
     7
370
     9
100
AcDbDimension
  2
Dim6
 10
1362.274066103118
 20
4846.217391304348
 30
0.0
 11
1312.274066103118
 21
4006.217391304348
 31
0.0
 70
   160
  1
<>
 71
     5
 42
-1.0
  3
Standard
100
AcDbAlignedDimension
 13
1562.274066103118
 23
4846.217391304348
 33
0.0
 14
1562.274066103118
 24
3166.217391304348
 34
0.0
 50
89.9999999999999
100
AcDbRotatedDimension
1001
ACAD
1000
DSTYLE
1002
{
1070
   344
1005
0
1070
   343
1005
0
1070
   173
1070
     1
1070
   289
1070
     2
1070
   279
1070
     2
1070
   288
1070
     1
1070
    77
1070
     3
1070
   172
1070
     1
1070
   174
1070
     0
1070
    74
1070
     0
1070
    73
1070
     0
1070
   284
1070
     8
1070
    78
1070
     8
1070
   140
1040
4.0
1070
    40
1040
20.0
1070
    42
1040
2.0
1070
    44
1040
2.0
1070
    43
1040
10.0
1070
   271
1070
     2
1070
    41
1040
4.0
1002
}
  0
DIMENSION
  5
15C
330
1F
100
AcDbEntity
  8
1
  6
Continuous
 62
     7
370
     9
100
AcDbDimension
  2
Dim7
 10
1462.274066103119
 20
4830.217391304348
 30
0.0
 11
1412.274066103119
 21
4708.717391304348
 31
0.0
 70
   160
  1
<>
 71
     5
 42
-1.0
  3
Standard
100
AcDbAlignedDimension
 13
1562.274066103118
 23
4830.217391304348
 33
0.0
 14
1562.274066103118
 24
4587.217391304348
 34
0.0
 50
89.9999999999999
100
AcDbRotatedDimension
1001
ACAD
1000
DSTYLE
1002
{
1070
   344
1005
0
1070
   343
1005
0
1070
   173
1070
     1
1070
   289
1070
     2
1070
   279
1070
     2
1070
   288
1070
     1
1070
    77
1070
     3
1070
   172
1070
     1
1070
   174
1070
     0
1070
    74
1070
     0
1070
    73
1070
     0
1070
   284
1070
     8
1070
    78
1070
     8
1070
   140
1040
4.0
1070
    40
1040
20.0
1070
    42
1040
2.0
1070
    44
1040
2.0
1070
    43
1040
10.0
1070
   271
1070
     2
1070
    41
1040
4.0
1002
}
  0
DIMENSION
  5
170
330
1F
100
AcDbEntity
  8
1
  6
Continuous
 62
     7
370
     9
100
AcDbDimension
  2
Dim8
 10
1462.274066103118
 20
4587.217391304349
 30
0.0
 11
1412.274066103118
 21
4465.717391304349
 31
0.0
 70
   160
  1
<>
 71
     5
 42
-1.0
  3
Standard
100
AcDbAlignedDimension
 13
1562.274066103118
 23
4587.217391304348
 33
0.0
 14
1562.274066103118
 24
4344.217391304348
 34
0.0
 50
89.9999999999999
100
AcDbRotatedDimension
1001
ACAD
1000
DSTYLE
1002
{
1070
   344
1005
0
1070
   343
1005
0
1070
   173
1070
     1
1070
   289
1070
     2
1070
   279
1070
     2
1070
   288
1070
     1
1070
    77
1070
     3
1070
   172
1070
     1
1070
   174
1070
     0
1070
    74
1070
     0
1070
    73
1070
     0
1070
   284
1070
     8
1070
    78
1070
     8
1070
   140
1040
4.0
1070
    40
1040
20.0
1070
    42
1040
2.0
1070
    44
1040
2.0
1070
    43
1040
10.0
1070
   271
1070
     2
1070
    41
1040
4.0
1002
}
  0
DIMENSION
  5
184
330
1F
100
AcDbEntity
  8
1
  6
Continuous
 62
     7
370
     9
100
AcDbDimension
  2
Dim9
 10
1462.274066103118
 20
4006.217391304349
 30
0.0
 11
1412.274066103118
 21
4175.217391304349
 31
0.0
 70
   160
  1
<>
 71
     5
 42
-1.0
  3
Standard
100
AcDbAlignedDimension
 13
1562.274066103118
 23
4006.217391304348
 33
0.0
 14
1562.274066103118
 24
4344.217391304348
 34
0.0
 50
89.99999999999991
100
AcDbRotatedDimension
1001
ACAD
1000
DSTYLE
1002
{
1070
   344
1005
0
1070
   343
1005
0
1070
   173
1070
     1
1070
   289
1070
     2
1070
   279
1070
     2
1070
   288
1070
     1
1070
    77
1070
     3
1070
   172
1070
     1
1070
   174
1070
     0
1070
    74
1070
     0
1070
    73
1070
     0
1070
   284
1070
     8
1070
    78
1070
     8
1070
   140
1040
4.0
1070
    40
1040
20.0
1070
    42
1040
2.0
1070
    44
1040
2.0
1070
    43
1040
10.0
1070
   271
1070
     2
1070
    41
1040
4.0
1002
}
  0
DIMENSION
  5
198
330
1F
100
AcDbEntity
  8
1
  6
Continuous
 62
     7
370
     9
100
AcDbDimension
  2
Dim10
 10
1462.274066103118
 20
3668.217391304349
 30
0.0
 11
1412.274066103118
 21
3837.217391304349
 31
0.0
 70
   160
  1
<>
 71
     5
 42
-1.0
  3
Standard
100
AcDbAlignedDimension
 13
1562.274066103118
 23
3668.217391304349
 33
0.0
 14
1562.274066103118
 24
4006.217391304348
 34
0.0
 50
89.99999999999991
100
AcDbRotatedDimension
1001
ACAD
1000
DSTYLE
1002
{
1070
   344
1005
0
1070
   343
1005
0
1070
   173
1070
     1
1070
   289
1070
     2
1070
   279
1070
     2
1070
   288
1070
     1
1070
    77
1070
     3
1070
   172
1070
     1
1070
   174
1070
     0
1070
    74
1070
     0
1070
    73
1070
     0
1070
   284
1070
     8
1070
    78
1070
     8
1070
   140
1040
4.0
1070
    40
1040
20.0
1070
    42
1040
2.0
1070
    44
1040
2.0
1070
    43
1040
10.0
1070
   271
1070
     2
1070
    41
1040
4.0
1002
}
  0
DIMENSION
  5
1AC
330
1F
100
AcDbEntity
  8
1
  6
Continuous
 62
     7
370
     9
100
AcDbDimension
  2
Dim11
 10
1462.274066103118
 20
3425.217391304349
 30
0.0
 11
1412.274066103118
 21
3546.717391304349
 31
0.0
 70
   160
  1
<>
 71
     5
 42
-1.0
  3
Standard
100
AcDbAlignedDimension
 13
1562.274066103118
 23
3425.217391304348
 33
0.0
 14
1562.274066103118
 24
3668.217391304349
 34
0.0
 50
89.99999999999991
100
AcDbRotatedDimension
1001
ACAD
1000
DSTYLE
1002
{
1070
   344
1005
0
1070
   343
1005
0
1070
   173
1070
     1
1070
   289
1070
     2
1070
   279
1070
     2
1070
   288
1070
     1
1070
    77
1070
     3
1070
   172
1070
     1
1070
   174
1070
     0
1070
    74
1070
     0
1070
    73
1070
     0
1070
   284
1070
     8
1070
    78
1070
     8
1070
   140
1040
4.0
1070
    40
1040
20.0
1070
    42
1040
2.0
1070
    44
1040
2.0
1070
    43
1040
10.0
1070
   271
1070
     2
1070
    41
1040
4.0
1002
}
  0
DIMENSION
  5
1C0
330
1F
100
AcDbEntity
  8
1
  6
Continuous
 62
     7
370
     9
100
AcDbDimension
  2
Dim12
 10
1462.274066103118
 20
3182.217391304349
 30
0.0
 11
1412.274066103118
 21
3303.717391304349
 31
0.0
 70
   160
  1
<>
 71
     5
 42
-1.0
  3
Standard
100
AcDbAlignedDimension
 13
1562.274066103118
 23
3182.217391304348
 33
0.0
 14
1562.274066103118
 24
3425.217391304348
 34
0.0
 50
89.99999999999991
100
AcDbRotatedDimension
1001
ACAD
1000
DSTYLE
1002
{
1070
   344
1005
0
1070
   343
1005
0
1070
   173
1070
     1
1070
   289
1070
     2
1070
   279
1070
     2
1070
   288
1070
     1
1070
    77
1070
     3
1070
   172
1070
     1
1070
   174
1070
     0
1070
    74
1070
     0
1070
    73
1070
     0
1070
   284
1070
     8
1070
    78
1070
     8
1070
   140
1040
4.0
1070
    40
1040
20.0
1070
    42
1040
2.0
1070
    44
1040
2.0
1070
    43
1040
10.0
1070
   271
1070
     2
1070
    41
1040
4.0
1002
}
  0
DIMENSION
  5
1D4
330
1F
100
AcDbEntity
  8
1
  6
Continuous
 62
     7
370
     9
100
AcDbDimension
  2
Dim13
 10
1562.274066103119
 20
3056.217391304348
 30
0.0
 11
4438.024066103119
 21
3106.217391304348
 31
0.0
 70
   160
  1
<>
 71
     5
 42
-1.0
  3
Standard
100
AcDbAlignedDimension
 13
1562.274066103118
 23
3166.217391304348
 33
0.0
 14
7313.774066103118
 24
3346.217391304348
 34
0.0
100
AcDbRotatedDimension
1001
ACAD
1000
DSTYLE
1002
{
1070
   344
1005
0
1070
   343
1005
0
1070
   173
1070
     1
1070
   289
1070
     2
1070
   279
1070
     2
1070
   288
1070
     1
1070
    77
1070
     3
1070
   172
1070
     1
1070
   174
1070
     0
1070
    74
1070
     0
1070
    73
1070
     0
1070
   284
1070
     8
1070
    78
1070
     8
1070
   140
1040
4.0
1070
    40
1040
20.0
1070
    42
1040
2.0
1070
    44
1040
2.0
1070
    43
1040
10.0
1070
   271
1070
     2
1070
    41
1040
4.0
1002
}
  0
LINE
  5
1D5
330
1F
100
AcDbEntity
  8
1
  6
Continuous
 62
     7
370
    30
100
AcDbLine
 10
6512.274066103118
 20
3816.217391304348
 30
0.0
 11
7012.274066103118
 21
3816.217391304348
 31
0.0
  0
LINE
  5
1D6
330
1F
100
AcDbEntity
  8
1
  6
Continuous
 62
     7
370
    30
100
AcDbLine
 10
6512.274066103118
 20
3846.217391304348
 30
0.0
 11
6512.274066103118
 21
3816.217391304348
 31
0.0
  0
LINE
  5
1D7
330
1F
100
AcDbEntity
  8
1
  6
Continuous
 62
     7
370
    30
100
AcDbLine
 10
7012.274066103118
 20
3846.217391304348
 30
0.0
 11
6512.274066103118
 21
3846.217391304348
 31
0.0
  0
LINE
  5
1D8
330
1F
100
AcDbEntity
  8
1
  6
Continuous
 62
     7
370
    30
100
AcDbLine
 10
6512.274066103118
 20
4196.217391304348
 30
0.0
 11
6512.274066103118
 21
4166.217391304348
 31
0.0
  0
LINE
  5
1D9
330
1F
100
AcDbEntity
  8
1
  6
Continuous
 62
     7
370
    30
100
AcDbLine
 10
7012.274066103118
 20
4196.217391304348
 30
0.0
 11
6512.274066103118
 21
4196.217391304348
 31
0.0
  0
LINE
  5
1DA
330
1F
100
AcDbEntity
  8
1
  6
Continuous
 62
     7
370
    30
100
AcDbLine
 10
7012.274066103118
 20
4166.217391304348
 30
0.0
 11
6512.274066103118
 21
4166.217391304348
 31
0.0
  0
LINE
  5
1DB
330
1F
100
AcDbEntity
  8
1
  6
Continuous
 62
     7
370
    30
100
AcDbLine
 10
7012.274066103118
 20
3846.217391304348
 30
0.0
 11
7012.274066103118
 21
3816.217391304348
 31
0.0
  0
LINE
  5
1DC
330
1F
100
AcDbEntity
  8
1
  6
Continuous
 62
     7
370
    30
100
AcDbLine
 10
7012.274066103118
 20
4196.217391304348
 30
0.0
 11
7012.274066103118
 21
4166.217391304348
 31
0.0
  0
LINE
  5
1DD
330
1F
100
AcDbEntity
  8
1
  6
Continuous
 62
     7
370
    30
100
AcDbLine
 10
6573.774066103118
 20
3246.217391304348
 30
0.0
 11
7148.774066103118
 21
3246.217391304348
 31
0.0
  0
LINE
  5
1DE
330
1F
100
AcDbEntity
  8
1
  6
Continuous
 62
     7
370
    30
100
AcDbLine
 10
7148.774066103118
 20
4766.217391304348
 30
0.0
 11
6573.774066103117
 21
4766.217391304348
 31
0.0
  0
LINE
  5
1DF
330
1F
100
AcDbEntity
  8
1
  6
Continuous
 62
     7
370
    30
100
AcDbLine
 10
7313.774066103118
 20
4666.217391304348
 30
0.0
 11
7148.774066103118
 21
4766.217391304348
 31
0.0
  0
LINE
  5
1E0
330
1F
100
AcDbEntity
  8
1
  6
Continuous
 62
     7
370
    30
100
AcDbLine
 10
7313.774066103118
 20
3346.217391304348
 30
0.0
 11
7313.774066103118
 21
4666.217391304348
 31
0.0
  0
LINE
  5
1E1
330
1F
100
AcDbEntity
  8
1
  6
Continuous
 62
     7
370
    30
100
AcDbLine
 10
7148.774066103118
 20
3246.217391304348
 30
0.0
 11
7313.774066103118
 21
3346.217391304348
 31
0.0
  0
LINE
  5
1E2
330
1F
100
AcDbEntity
  8
1
  6
Continuous
 62
     7
370
    30
100
AcDbLine
 10
7013.774066103118
 20
3246.217391304348
 30
0.0
 11
7148.774066103118
 21
3246.217391304348
 31
0.0
  0
LINE
  5
1E3
330
1F
100
AcDbEntity
  8
1
  6
Continuous
 62
     7
370
    30
100
AcDbLine
 10
7013.774066103118
 20
4766.217391304348
 30
0.0
 11
7013.774066103118
 21
3246.217391304348
 31
0.0
  0
LINE
  5
1E4
330
1F
100
AcDbEntity
  8
1
  6
Continuous
 62
     7
370
    30
100
AcDbLine
 10
7012.274066103118
 20
3246.217391304348
 30
0.0
 11
7012.274066103118
 21
4766.217391304348
 31
0.0
  0
LINE
  5
1E5
330
1F
100
AcDbEntity
  8
1
  6
Continuous
 62
     7
370
    30
100
AcDbLine
 10
6573.774066103117
 20
4766.217391304348
 30
0.0
 11
6573.774066103117
 21
4606.217391304348
 31
0.0
  0
LINE
  5
1E6
330
1F
100
AcDbEntity
  8
1
  6
Continuous
 62
     7
370
    30
100
AcDbLine
 10
6573.774066103117
 20
4766.217391304348
 30
0.0
 11
7012.274066103118
 21
4766.217391304348
 31
0.0
  0
LINE
  5
1E7
330
1F
100
AcDbEntity
  8
1
  6
Continuous
 62
     7
370
    30
100
AcDbLine
 10
6573.774066103117
 20
3246.217391304348
 30
0.0
 11
7013.774066103118
 21
3246.217391304348
 31
0.0
  0
LINE
  5
1E8
330
1F
100
AcDbEntity
  8
1
  6
Continuous
 62
     7
370
    30
100
AcDbLine
 10
6573.774066103117
 20
3406.217391304348
 30
0.0
 11
6573.774066103117
 21
3246.217391304348
 31
0.0
  0
LINE
  5
1E9
330
1F
100
AcDbEntity
  8
1
  6
Continuous
 62
     7
370
    30
100
AcDbLine
 10
7192.274066103118
 20
4766.217391304348
 30
0.0
 11
6592.274066103118
 21
4766.217391304348
 31
0.0
  0
LINE
  5
1EA
330
1F
100
AcDbEntity
  8
1
  6
Continuous
 62
     7
370
    30
100
AcDbLine
 10
7192.274066103118
 20
3246.217391304348
 30
0.0
 11
6592.274066103118
 21
3246.217391304348
 31
0.0
  0
LINE
  5
1EB
330
1F
100
AcDbEntity
  8
1
  6
Continuous
 62
     7
370
    30
100
AcDbLine
 10
6892.274066103118
 20
3246.217391304348
 30
0.0
 11
6892.274066103118
 21
4766.217391304348
 31
0.0
  0
LINE
  5
1EC
330
1F
100
AcDbEntity
  8
1
  6
Continuous
 62
     7
370
    30
100
AcDbLine
 10
6592.274066103118
 20
3246.217391304348
 30
0.0
 11
6892.274066103118
 21
3246.217391304348
 31
0.0
  0
LINE
  5
1ED
330
1F
100
AcDbEntity
  8
1
  6
Continuous
 62
     7
370
    30
100
AcDbLine
 10
6592.274066103118
 20
4766.217391304348
 30
0.0
 11
6892.274066103118
 21
4766.217391304348
 31
0.0
  0
LINE
  5
1EE
330
1F
100
AcDbEntity
  8
1
  6
Continuous
 62
     7
370
    30
100
AcDbLine
 10
6512.274066103118
 20
3456.217391304348
 30
0.0
 11
6512.274066103118
 21
3406.217391304348
 31
0.0
  0
LINE
  5
1EF
330
1F
100
AcDbEntity
  8
1
  6
Continuous
 62
     7
370
    30
100
AcDbLine
 10
6512.274066103118
 20
4606.217391304348
 30
0.0
 11
6512.274066103118
 21
4556.217391304348
 31
0.0
  0
LINE
  5
1F0
330
1F
100
AcDbEntity
  8
1
  6
Continuous
 62
     7
370
    30
100
AcDbLine
 10
6612.274066103118
 20
4556.217391304348
 30
0.0
 11
6312.274066103118
 21
4556.217391304348
 31
0.0
  0
LINE
  5
1F1
330
1F
100
AcDbEntity
  8
1
  6
Continuous
 62
     7
370
    30
100
AcDbLine
 10
6312.274066103118
 20
3456.217391304348
 30
0.0
 11
6612.274066103118
 21
3456.217391304348
 31
0.0
  0
INSERT
  5
1F9
330
1F
100
AcDbEntity
  8
0
100
AcDbBlockReference
  2
*G31
 10
0.0
 20
0.0
 30
0.0
  0
INSERT
  5
201
330
1F
100
AcDbEntity
  8
0
100
AcDbBlockReference
  2
*G32
 10
0.0
 20
0.0
 30
0.0
  0
LINE
  5
202
330
1F
100
AcDbEntity
  8
1
  6
Continuous
 62
     7
370
    30
100
AcDbLine
 10
6392.274066103118
 20
3995.217391304348
 30
0.0
 11
6492.274066103118
 21
3995.217391304348
 31
0.0
  0
LINE
  5
203
330
1F
100
AcDbEntity
  8
1
  6
Continuous
 62
     7
370
    30
100
AcDbLine
 10
6392.274066103118
 20
4017.217391304348
 30
0.0
 11
6492.274066103118
 21
4017.217391304348
 31
0.0
  0
INSERT
  5
20B
330
1F
100
AcDbEntity
  8
0
100
AcDbBlockReference
  2
*G33
 10
0.0
 20
0.0
 30
0.0
  0
INSERT
  5
213
330
1F
100
AcDbEntity
  8
0
100
AcDbBlockReference
  2
*G34
 10
0.0
 20
0.0
 30
0.0
  0
INSERT
  5
21B
330
1F
100
AcDbEntity
  8
0
100
AcDbBlockReference
  2
*G35
 10
0.0
 20
0.0
 30
0.0
  0
INSERT
  5
223
330
1F
100
AcDbEntity
  8
0
100
AcDbBlockReference
  2
*G36
 10
0.0
 20
0.0
 30
0.0
  0
INSERT
  5
22B
330
1F
100
AcDbEntity
  8
0
100
AcDbBlockReference
  2
*G37
 10
0.0
 20
0.0
 30
0.0
  0
INSERT
  5
233
330
1F
100
AcDbEntity
  8
0
100
AcDbBlockReference
  2
*G38
 10
0.0
 20
0.0
 30
0.0
  0
LINE
  5
234
330
1F
100
AcDbEntity
  8
1
  6
Continuous
 62
     7
370
    30
100
AcDbLine
 10
1962.274066103118
 20
4814.217391304348
 30
0.0
 11
1912.274066103118
 21
4814.217391304348
 31
0.0
  0
LINE
  5
235
330
1F
100
AcDbEntity
  8
1
  6
Continuous
 62
     7
370
    30
100
AcDbLine
 10
1962.274066103118
 20
4846.217391304348
 30
0.0
 11
1962.274066103118
 21
4814.217391304348
 31
0.0
  0
LINE
  5
236
330
1F
100
AcDbEntity
  8
1
  6
Continuous
 62
     7
370
    30
100
AcDbLine
 10
1562.274066103118
 20
4814.217391304348
 30
0.0
 11
1612.274066103118
 21
4814.217391304348
 31
0.0
  0
LINE
  5
237
330
1F
100
AcDbEntity
  8
1
  6
Continuous
 62
     7
370
    30
100
AcDbLine
 10
1562.274066103118
 20
4846.217391304348
 30
0.0
 11
1562.274066103118
 21
4814.217391304348
 31
0.0
  0
INSERT
  5
23F
330
1F
100
AcDbEntity
  8
0
100
AcDbBlockReference
  2
*G39
 10
0.0
 20
0.0
 30
0.0
  0
INSERT
  5
247
330
1F
100
AcDbEntity
  8
0
100
AcDbBlockReference
  2
*G40
 10
0.0
 20
0.0
 30
0.0
  0
INSERT
  5
24F
330
1F
100
AcDbEntity
  8
0
100
AcDbBlockReference
  2
*G41
 10
0.0
 20
0.0
 30
0.0
  0
INSERT
  5
257
330
1F
100
AcDbEntity
  8
0
100
AcDbBlockReference
  2
*G42
 10
0.0
 20
0.0
 30
0.0
  0
LINE
  5
258
330
1F
100
AcDbEntity
  8
1
  6
Continuous
 62
     7
370
    30
100
AcDbLine
 10
1912.274066103118
 20
3166.217391304348
 30
0.0
 11
1912.274066103118
 21
3198.217391304348
 31
0.0
  0
LINE
  5
259
330
1F
100
AcDbEntity
  8
1
  6
Continuous
 62
     7
370
    30
100
AcDbLine
 10
1962.274066103118
 20
3198.217391304348
 30
0.0
 11
1962.274066103118
 21
3166.217391304348
 31
0.0
  0
LINE
  5
25A
330
1F
100
AcDbEntity
  8
1
  6
Continuous
 62
     7
370
    30
100
AcDbLine
 10
1912.274066103118
 20
3198.217391304348
 30
0.0
 11
1962.274066103118
 21
3198.217391304348
 31
0.0
  0
LINE
  5
25B
330
1F
100
AcDbEntity
  8
1
  6
Continuous
 62
     7
370
    30
100
AcDbLine
 10
1562.274066103118
 20
3198.217391304348
 30
0.0
 11
1562.274066103118
 21
3166.217391304348
 31
0.0
  0
LINE
  5
25C
330
1F
100
AcDbEntity
  8
1
  6
Continuous
 62
     7
370
    30
100
AcDbLine
 10
1612.274066103118
 20
3198.217391304348
 30
0.0
 11
1562.274066103118
 21
3198.217391304348
 31
0.0
  0
INSERT
  5
264
330
1F
100
AcDbEntity
  8
0
100
AcDbBlockReference
  2
*G43
 10
0.0
 20
0.0
 30
0.0
  0
INSERT
  5
26C
330
1F
100
AcDbEntity
  8
0
100
AcDbBlockReference
  2
*G44
 10
0.0
 20
0.0
 30
0.0
  0
INSERT
  5
274
330
1F
100
AcDbEntity
  8
0
100
AcDbBlockReference
  2
*G45
 10
0.0
 20
0.0
 30
0.0
  0
INSERT
  5
27C
330
1F
100
AcDbEntity
  8
0
100
AcDbBlockReference
  2
*G46
 10
0.0
 20
0.0
 30
0.0
  0
INSERT
  5
284
330
1F
100
AcDbEntity
  8
0
100
AcDbBlockReference
  2
*G47
 10
0.0
 20
0.0
 30
0.0
  0
LINE
  5
285
330
1F
100
AcDbEntity
  8
1
  6
Continuous
 62
     7
370
    30
100
AcDbLine
 10
2382.274066103118
 20
4404.217391304348
 30
0.0
 11
2382.274066103118
 21
4176.217391304348
 31
0.0
  0
INSERT
  5
28D
330
1F
100
AcDbEntity
  8
0
100
AcDbBlockReference
  2
*G48
 10
0.0
 20
0.0
 30
0.0
  0
INSERT
  5
295
330
1F
100
AcDbEntity
  8
0
100
AcDbBlockReference
  2
*G49
 10
0.0
 20
0.0
 30
0.0
  0
INSERT
  5
29D
330
1F
100
AcDbEntity
  8
0
100
AcDbBlockReference
  2
*G50
 10
0.0
 20
0.0
 30
0.0
  0
INSERT
  5
2A5
330
1F
100
AcDbEntity
  8
0
100
AcDbBlockReference
  2
*G51
 10
0.0
 20
0.0
 30
0.0
  0
INSERT
  5
2AD
330
1F
100
AcDbEntity
  8
0
100
AcDbBlockReference
  2
*G52
 10
0.0
 20
0.0
 30
0.0
  0
INSERT
  5
2B5
330
1F
100
AcDbEntity
  8
0
100
AcDbBlockReference
  2
*G53
 10
0.0
 20
0.0
 30
0.0
  0
INSERT
  5
2BD
330
1F
100
AcDbEntity
  8
0
100
AcDbBlockReference
  2
*G54
 10
0.0
 20
0.0
 30
0.0
  0
INSERT
  5
2C5
330
1F
100
AcDbEntity
  8
0
100
AcDbBlockReference
  2
*G55
 10
0.0
 20
0.0
 30
0.0
  0
LINE
  5
2C6
330
1F
100
AcDbEntity
  8
1
  6
Continuous
 62
     7
370
    30
100
AcDbLine
 10
1912.274066103118
 20
4846.217391304348
 30
0.0
 11
1962.274066103118
 21
4846.217391304348
 31
0.0
  0
LINE
  5
2C7
330
1F
100
AcDbEntity
  8
1
  6
Continuous
 62
     7
370
    30
100
AcDbLine
 10
1612.274066103118
 20
4846.217391304348
 30
0.0
 11
1562.274066103118
 21
4846.217391304348
 31
0.0
  0
LINE
  5
2C8
330
1F
100
AcDbEntity
  8
1
  6
Continuous
 62
     7
370
    30
100
AcDbLine
 10
1962.274066103118
 20
3166.217391304348
 30
0.0
 11
1912.274066103118
 21
3166.217391304348
 31
0.0
  0
LINE
  5
2C9
330
1F
100
AcDbEntity
  8
1
  6
Continuous
 62
     7
370
    30
100
AcDbLine
 10
1562.274066103118
 20
3166.217391304348
 30
0.0
 11
1612.274066103118
 21
3166.217391304348
 31
0.0
  0
LINE
  5
2CA
330
1F
100
AcDbEntity
  8
1
  6
Continuous
 62
     7
370
    30
100
AcDbLine
 10
3027.274066103118
 20
4156.217391304348
 30
0.0
 11
3027.274066103118
 21
3856.217391304349
 31
0.0
  0
LINE
  5
2CB
330
1F
100
AcDbEntity
  8
1
  6
Continuous
 62
     7
370
    30
100
AcDbLine
 10
3327.274066103119
 20
4156.217391304348
 30
0.0
 11
3327.274066103119
 21
3856.217391304349
 31
0.0
  0
DIMENSION
  5
2DF
330
1F
100
AcDbEntity
  8
1
  6
Continuous
 62
     7
370
    30
100
AcDbDimension
  2
Dim14
 10
2312.274066103118
 20
3576.217391304349
 30
0.0
 11
2272.274066103118
 21
4006.217391304349
 31
0.0
 70
   160
  1
<>
 71
     5
 42
-1.0
  3
Standard
100
AcDbAlignedDimension
 13
2487.274066103118
 23
3576.217391304348
 33
0.0
 14
2487.274066103118
 24
4436.217391304348
 34
0.0
 50
89.99999999999991
100
AcDbRotatedDimension
1001
ACAD
1000
DSTYLE
1002
{
1070
   344
1005
0
1070
   343
1005
0
1070
   173
1070
     1
1070
   289
1070
     2
1070
   279
1070
     2
1070
   288
1070
     1
1070
    77
1070
     3
1070
   172
1070
     1
1070
   174
1070
     0
1070
    74
1070
     0
1070
    73
1070
     0
1070
   284
1070
     8
1070
    78
1070
     8
1070
   140
1040
4.0
1070
    40
1040
20.0
1070
    42
1040
2.0
1070
    44
1040
2.0
1070
    43
1040
10.0
1070
   271
1070
     2
1070
    41
1040
4.0
1002
}
  0
DIMENSION
  5
2F3
330
1F
100
AcDbEntity
  8
1
  6
Continuous
 62
     7
370
    30
100
AcDbDimension
  2
Dim15
 10
1812.274066103118
 20
4156.217391304349
 30
0.0
 11
1772.274066103118
 21
4306.217391304349
 31
0.0
 70
   160
  1
<>
 71
     5
 42
-1.0
  3
Standard
100
AcDbAlignedDimension
 13
1912.274066103118
 23
4156.217391304348
 33
0.0
 14
1912.274066103118
 24
4456.217391304348
 34
0.0
 50
89.99999999999991
100
AcDbRotatedDimension
1001
ACAD
1000
DSTYLE
1002
{
1070
   344
1005
0
1070
   343
1005
0
1070
   173
1070
     1
1070
   289
1070
     2
1070
   279
1070
     2
1070
   288
1070
     1
1070
    77
1070
     3
1070
   172
1070
     1
1070
   174
1070
     0
1070
    74
1070
     0
1070
    73
1070
     0
1070
   284
1070
     8
1070
    78
1070
     8
1070
   140
1040
4.0
1070
    40
1040
20.0
1070
    42
1040
2.0
1070
    44
1040
2.0
1070
    43
1040
10.0
1070
   271
1070
     2
1070
    41
1040
4.0
1002
}
  0
DIMENSION
  5
307
330
1F
100
AcDbEntity
  8
1
  6
Continuous
 62
     7
370
    30
100
AcDbDimension
  2
Dim16
 10
1812.274066103118
 20
3856.21739130435
 30
0.0
 11
1772.274066103118
 21
4006.217391304349
 31
0.0
 70
   160
  1
<>
 71
     5
 42
-1.0
  3
Standard
100
AcDbAlignedDimension
 13
1912.274066103118
 23
3856.217391304349
 33
0.0
 14
1912.274066103118
 24
4156.217391304348
 34
0.0
 50
89.99999999999991
100
AcDbRotatedDimension
1001
ACAD
1000
DSTYLE
1002
{
1070
   344
1005
0
1070
   343
1005
0
1070
   173
1070
     1
1070
   289
1070
     2
1070
   279
1070
     2
1070
   288
1070
     1
1070
    77
1070
     3
1070
   172
1070
     1
1070
   174
1070
     0
1070
    74
1070
     0
1070
    73
1070
     0
1070
   284
1070
     8
1070
    78
1070
     8
1070
   140
1040
4.0
1070
    40
1040
20.0
1070
    42
1040
2.0
1070
    44
1040
2.0
1070
    43
1040
10.0
1070
   271
1070
     2
1070
    41
1040
4.0
1002
}
  0
DIMENSION
  5
31B
330
1F
100
AcDbEntity
  8
1
  6
Continuous
 62
     7
370
    30
100
AcDbDimension
  2
Dim17
 10
1812.274066103118
 20
3556.217391304349
 30
0.0
 11
1772.274066103118
 21
3706.217391304349
 31
0.0
 70
   160
  1
<>
 71
     5
 42
-1.0
  3
Standard
100
AcDbAlignedDimension
 13
1912.274066103118
 23
3556.217391304348
 33
0.0
 14
1912.274066103118
 24
3856.217391304349
 34
0.0
 50
89.99999999999991
100
AcDbRotatedDimension
1001
ACAD
1000
DSTYLE
1002
{
1070
   344
1005
0
1070
   343
1005
0
1070
   173
1070
     1
1070
   289
1070
     2
1070
   279
1070
     2
1070
   288
1070
     1
1070
    77
1070
     3
1070
   172
1070
     1
1070
   174
1070
     0
1070
    74
1070
     0
1070
    73
1070
     0
1070
   284
1070
     8
1070
    78
1070
     8
1070
   140
1040
4.0
1070
    40
1040
20.0
1070
    42
1040
2.0
1070
    44
1040
2.0
1070
    43
1040
10.0
1070
   271
1070
     2
1070
    41
1040
4.0
1002
}
  0
INSERT
  5
323
330
1F
100
AcDbEntity
  8
0
100
AcDbBlockReference
  2
*G60
 10
0.0
 20
0.0
 30
0.0
  0
INSERT
  5
32B
330
1F
100
AcDbEntity
  8
0
100
AcDbBlockReference
  2
*G61
 10
0.0
 20
0.0
 30
0.0
  0
LINE
  5
32C
330
1F
100
AcDbEntity
  8
1
  6
Continuous
 62
     7
370
    30
100
AcDbLine
 10
6312.274066103118
 20
3556.217391304348
 30
0.0
 11
1962.274066103118
 21
3556.217391304348
 31
0.0
  0
LINE
  5
32D
330
1F
100
AcDbEntity
  8
1
  6
Continuous
 62
     7
370
    30
100
AcDbLine
 10
6312.274066103118
 20
4606.217391304348
 30
0.0
 11
6312.274066103118
 21
3406.217391304348
 31
0.0
  0
LINE
  5
32E
330
1F
100
AcDbEntity
  8
1
  6
Continuous
 62
     7
370
    30
100
AcDbLine
 10
6312.274066103118
 20
4456.217391304348
 30
0.0
 11
1912.274066103118
 21
4456.217391304348
 31
0.0
  0
LINE
  5
32F
330
1F
100
AcDbEntity
  8
1
  6
Continuous
 62
     7
370
    30
100
AcDbLine
 10
6312.274066103118
 20
4156.217391304348
 30
0.0
 11
1912.274066103118
 21
4156.217391304348
 31
0.0
  0
LINE
  5
330
330
1F
100
AcDbEntity
  8
1
  6
Continuous
 62
     7
370
    30
100
AcDbLine
 10
1912.274066103118
 20
3856.217391304349
 30
0.0
 11
6312.274066103118
 21
3856.217391304348
 31
0.0
  0
LINE
  5
331
330
1F
100
AcDbEntity
  8
1
  6
Continuous
 62
     7
370
    30
100
AcDbLine
 10
1912.274066103118
 20
3556.217391304348
 30
0.0
 11
6312.274066103118
 21
3556.217391304348
 31
0.0
  0
DIMENSION
  5
345
330
1F
100
AcDbEntity
  8
1
  6
Continuous
 62
     7
370
     9
100
AcDbDimension
  2
Dim18
 10
1612.274066103116
 20
1020.0
 30
0.0
 11
4450.524066103115
 21
1070.0
 31
0.0
 70
   160
  1
<>
 71
     5
 42
-1.0
  3
Standard
100
AcDbAlignedDimension
 13
1612.274066103121
 23
1450.0
 33
0.0
 14
7288.77406610312
 24
1518.0
 34
0.0
100
AcDbRotatedDimension
1001
ACAD
1000
DSTYLE
1002
{
1070
   344
1005
0
1070
   343
1005
0
1070
   173
1070
     1
1070
   289
1070
     2
1070
   279
1070
     2
1070
   288
1070
     1
1070
    77
1070
     3
1070
   172
1070
     1
1070
   174
1070
     0
1070
    74
1070
     0
1070
    73
1070
     0
1070
   284
1070
     8
1070
    78
1070
     8
1070
   140
1040
4.0
1070
    40
1040
20.0
1070
    42
1040
2.0
1070
    44
1040
2.0
1070
    43
1040
10.0
1070
   271
1070
     2
1070
    41
1040
4.0
1002
}
  0
DIMENSION
  5
359
330
1F
100
AcDbEntity
  8
1
  6
Continuous
 62
     7
370
    30
100
AcDbDimension
  2
Dim19
 10
6287.27406610312
 20
1580.0
 30
0.0
 11
6237.27406610312
 21
1399.0
 31
0.0
 70
   160
  1
<>
 71
     5
 42
-1.0
  3
Standard
100
AcDbAlignedDimension
 13
6547.27406610312
 23
1580.0
 33
0.0
 14
6548.77406610312
 24
1218.0
 34
0.0
 50
89.9999999999999
100
AcDbRotatedDimension
1001
ACAD
1000
DSTYLE
1002
{
1070
   344
1005
0
1070
   343
1005
0
1070
   173
1070
     1
1070
   289
1070
     2
1070
   279
1070
     2
1070
   288
1070
     1
1070
    77
1070
     3
1070
   172
1070
     1
1070
   174
1070
     0
1070
    74
1070
     0
1070
    73
1070
     0
1070
   284
1070
     8
1070
    78
1070
     8
1070
   140
1040
4.0
1070
    40
1040
20.0
1070
    42
1040
2.0
1070
    44
1040
2.0
1070
    43
1040
10.0
1070
   271
1070
     2
1070
    41
1040
4.0
1002
}
  0
DIMENSION
  5
36D
330
1F
100
AcDbEntity
  8
1
  6
Continuous
 62
     7
370
     9
100
AcDbDimension
  2
Dim20
 10
1337.274066103121
 20
1879.999999999999
 30
0.0
 11
1287.274066103121
 21
1629.999999999999
 31
0.0
 70
   160
  1
<>
 71
     5
 42
-1.0
  3
Standard
100
AcDbAlignedDimension
 13
1587.274066103121
 23
1880.0
 33
0.0
 14
1612.274066103121
 24
1380.0
 34
0.0
 50
89.9999999999999
100
AcDbRotatedDimension
1001
ACAD
1000
DSTYLE
1002
{
1070
   344
1005
0
1070
   343
1005
0
1070
   173
1070
     1
1070
   289
1070
     2
1070
   279
1070
     2
1070
   288
1070
     1
1070
    77
1070
     3
1070
   172
1070
     1
1070
   174
1070
     0
1070
    74
1070
     0
1070
    73
1070
     0
1070
   284
1070
     8
1070
    78
1070
     8
1070
   140
1040
4.0
1070
    40
1040
20.0
1070
    42
1040
2.0
1070
    44
1040
2.0
1070
    43
1040
10.0
1070
   271
1070
     2
1070
    41
1040
4.0
1002
}
  0
DIMENSION
  5
381
330
1F
100
AcDbEntity
  8
1
  6
Continuous
 62
     7
370
     9
100
AcDbDimension
  2
Dim21
 10
1237.274066103121
 20
1115.000000000003
 30
0.0
 11
1187.274066103121
 21
1497.500000000002
 31
0.0
 70
   160
  1
<>
 71
     5
 42
-1.0
  3
Standard
100
AcDbAlignedDimension
 13
2284.774066103121
 23
1115.0
 33
0.0
 14
1757.274066103121
 24
1880.0
 34
0.0
 50
89.99999999999991
100
AcDbRotatedDimension
1001
ACAD
1000
DSTYLE
1002
{
1070
   344
1005
0
1070
   343
1005
0
1070
   173
1070
     1
1070
   289
1070
     2
1070
   279
1070
     2
1070
   288
1070
     1
1070
    77
1070
     3
1070
   172
1070
     1
1070
   174
1070
     0
1070
    74
1070
     0
1070
    73
1070
     0
1070
   284
1070
     8
1070
    78
1070
     8
1070
   140
1040
4.0
1070
    40
1040
20.0
1070
    42
1040
2.0
1070
    44
1040
2.0
1070
    43
1040
10.0
1070
   271
1070
     2
1070
    41
1040
4.0
1002
}
  0
LINE
  5
382
330
1F
100
AcDbEntity
  8
1
  6
DASHDOT
 62
     7
370
     9
100
AcDbLine
 10
1612.274066103118
 20
1344.508004281292
 30
0.0
 11
1612.274066103121
 21
3390.0
 31
0.0
  0
DIMENSION
  5
396
330
1F
100
AcDbEntity
  8
1
  6
Continuous
 62
     7
370
     9
100
AcDbDimension
  2
Dim22
 10
1537.27406610312
 20
1280.0
 30
0.0
 11
1737.274066103121
 21
1330.0
 31
0.0
 70
   160
  1
<>
 71
     5
 42
-1.0
  3
Standard
100
AcDbAlignedDimension
 13
1537.274066103121
 23
1450.0
 33
0.0
 14
1612.274066103121
 24
1450.0
 34
0.0
100
AcDbRotatedDimension
1001
ACAD
1000
DSTYLE
1002
{
1070
   344
1005
0
1070
   343
1005
0
1070
   173
1070
     1
1070
   289
1070
     2
1070
   279
1070
     2
1070
   288
1070
     1
1070
    77
1070
     3
1070
   172
1070
     1
1070
   174
1070
     0
1070
    74
1070
     0
1070
    73
1070
     0
1070
   284
1070
     8
1070
    78
1070
     8
1070
   140
1040
4.0
1070
    40
1040
20.0
1070
    42
1040
2.0
1070
    44
1040
2.0
1070
    43
1040
10.0
1070
   271
1070
     2
1070
    41
1040
4.0
1002
}
  0
DIMENSION
  5
3AA
330
1F
100
AcDbEntity
  8
1
  6
Continuous
 62
     7
370
     9
100
AcDbDimension
  2
Dim23
 10
1437.274066103121
 20
1380.0
 30
0.0
 11
1387.274066103121
 21
1556.687806994707
 31
0.0
 70
   160
  1
<>
 71
     5
 42
-1.0
  3
Standard
100
AcDbAlignedDimension
 13
1612.274066103121
 23
1380.0
 33
0.0
 14
1612.274066103121
 24
1450.0
 34
0.0
 50
89.99999999999991
100
AcDbRotatedDimension
1001
ACAD
1000
DSTYLE
1002
{
1070
   344
1005
0
1070
   343
1005
0
1070
   173
1070
     1
1070
   289
1070
     2
1070
   279
1070
     2
1070
   288
1070
     1
1070
    77
1070
     3
1070
   172
1070
     1
1070
   174
1070
     0
1070
    74
1070
     0
1070
    73
1070
     0
1070
   284
1070
     8
1070
    78
1070
     8
1070
   140
1040
4.0
1070
    40
1040
20.0
1070
    42
1040
2.0
1070
    44
1040
2.0
1070
    43
1040
10.0
1070
   271
1070
     2
1070
    41
1040
4.0
1002
}
  0
DIMENSION
  5
3BE
330
1F
100
AcDbEntity
  8
1
  6
Continuous
 62
     7
370
     9
100
AcDbDimension
  2
Dim24
 10
1612.27406610312
 20
1180.0
 30
0.0
 11
1861.746558798889
 21
1230.0
 31
0.0
 70
   160
  1
<>
 71
     5
 42
-1.0
  3
Standard
100
AcDbAlignedDimension
 13
1612.274066103121
 23
1450.0
 33
0.0
 14
1737.274066103121
 24
1450.0
 34
0.0
100
AcDbRotatedDimension
1001
ACAD
1000
DSTYLE
1002
{
1070
   344
1005
0
1070
   343
1005
0
1070
   173
1070
     1
1070
   289
1070
     2
1070
   279
1070
     2
1070
   288
1070
     1
1070
    77
1070
     3
1070
   172
1070
     1
1070
   174
1070
     0
1070
    74
1070
     0
1070
    73
1070
     0
1070
   284
1070
     8
1070
    78
1070
     8
1070
   140
1040
4.0
1070
    40
1040
20.0
1070
    42
1040
2.0
1070
    44
1040
2.0
1070
    43
1040
10.0
1070
   271
1070
     2
1070
    41
1040
4.0
1002
}
  0
DIMENSION
  5
3D2
330
1F
100
AcDbEntity
  8
1
  6
Continuous
 62
     7
370
     9
100
AcDbDimension
  2
Dim25
 10
1612.274066103122
 20
2130.0
 30
0.0
 11
2024.774066103121
 21
2180.0
 31
0.0
 70
   160
  1
<>
 71
     5
 42
-1.0
  3
Standard
100
AcDbAlignedDimension
 13
1612.274066103121
 23
1450.0
 33
0.0
 14
2437.274066103121
 24
1955.0
 34
0.0
100
AcDbRotatedDimension
1001
ACAD
1000
DSTYLE
1002
{
1070
   344
1005
0
1070
   343
1005
0
1070
   173
1070
     1
1070
   289
1070
     2
1070
   279
1070
     2
1070
   288
1070
     1
1070
    77
1070
     3
1070
   172
1070
     1
1070
   174
1070
     0
1070
    74
1070
     0
1070
    73
1070
     0
1070
   284
1070
     8
1070
    78
1070
     8
1070
   140
1040
4.0
1070
    40
1040
20.0
1070
    42
1040
2.0
1070
    44
1040
2.0
1070
    43
1040
10.0
1070
   271
1070
     2
1070
    41
1040
4.0
1002
}
  0
DIMENSION
  5
3E6
330
1F
100
AcDbEntity
  8
1
  6
Continuous
 62
     7
370
     9
100
AcDbDimension
  2
Dim26
 10
1612.27406610312
 20
2230.0
 30
0.0
 11
2124.77406610312
 21
2280.0
 31
0.0
 70
   160
  1
<>
 71
     5
 42
-1.0
  3
Standard
100
AcDbAlignedDimension
 13
1612.274066103118
 23
1450.0
 33
0.0
 14
2637.274066103121
 24
1955.0
 34
0.0
100
AcDbRotatedDimension
1001
ACAD
1000
DSTYLE
1002
{
1070
   344
1005
0
1070
   343
1005
0
1070
   173
1070
     1
1070
   289
1070
     2
1070
   279
1070
     2
1070
   288
1070
     1
1070
    77
1070
     3
1070
   172
1070
     1
1070
   174
1070
     0
1070
    74
1070
     0
1070
    73
1070
     0
1070
   284
1070
     8
1070
    78
1070
     8
1070
   140
1040
4.0
1070
    40
1040
20.0
1070
    42
1040
2.0
1070
    44
1040
2.0
1070
    43
1040
10.0
1070
   271
1070
     2
1070
    41
1040
4.0
1002
}
  0
DIMENSION
  5
3FA
330
1F
100
AcDbEntity
  8
1
  6
Continuous
 62
     7
370
     9
100
AcDbDimension
  2
Dim27
 10
1612.27406610312
 20
2330.0
 30
0.0
 11
2224.774066103121
 21
2380.0
 31
0.0
 70
   160
  1
<>
 71
     5
 42
-1.0
  3
Standard
100
AcDbAlignedDimension
 13
1612.274066103118
 23
1450.0
 33
0.0
 14
2837.274066103121
 24
1955.0
 34
0.0
100
AcDbRotatedDimension
1001
ACAD
1000
DSTYLE
1002
{
1070
   344
1005
0
1070
   343
1005
0
1070
   173
1070
     1
1070
   289
1070
     2
1070
   279
1070
     2
1070
   288
1070
     1
1070
    77
1070
     3
1070
   172
1070
     1
1070
   174
1070
     0
1070
    74
1070
     0
1070
    73
1070
     0
1070
   284
1070
     8
1070
    78
1070
     8
1070
   140
1040
4.0
1070
    40
1040
20.0
1070
    42
1040
2.0
1070
    44
1040
2.0
1070
    43
1040
10.0
1070
   271
1070
     2
1070
    41
1040
4.0
1002
}
  0
DIMENSION
  5
40E
330
1F
100
AcDbEntity
  8
1
  6
Continuous
 62
     7
370
     9
100
AcDbDimension
  2
Dim28
 10
1612.274066103121
 20
2430.0
 30
0.0
 11
2324.774066103121
 21
2480.0
 31
0.0
 70
   160
  1
<>
 71
     5
 42
-1.0
  3
Standard
100
AcDbAlignedDimension
 13
1612.27406610312
 23
1450.0
 33
0.0
 14
3037.27406610312
 24
1955.0
 34
0.0
100
AcDbRotatedDimension
1001
ACAD
1000
DSTYLE
1002
{
1070
   344
1005
0
1070
   343
1005
0
1070
   173
1070
     1
1070
   289
1070
     2
1070
   279
1070
     2
1070
   288
1070
     1
1070
    77
1070
     3
1070
   172
1070
     1
1070
   174
1070
     0
1070
    74
1070
     0
1070
    73
1070
     0
1070
   284
1070
     8
1070
    78
1070
     8
1070
   140
1040
4.0
1070
    40
1040
20.0
1070
    42
1040
2.0
1070
    44
1040
2.0
1070
    43
1040
10.0
1070
   271
1070
     2
1070
    41
1040
4.0
1002
}
  0
DIMENSION
  5
422
330
1F
100
AcDbEntity
  8
1
  6
Continuous
 62
     7
370
     9
100
AcDbDimension
  2
Dim29
 10
1612.27406610312
 20
2530.0
 30
0.0
 11
2424.774066103121
 21
2580.0
 31
0.0
 70
   160
  1
<>
 71
     5
 42
-1.0
  3
Standard
100
AcDbAlignedDimension
 13
1612.274066103118
 23
1450.0
 33
0.0
 14
3237.274066103121
 24
1955.0
 34
0.0
100
AcDbRotatedDimension
1001
ACAD
1000
DSTYLE
1002
{
1070
   344
1005
0
1070
   343
1005
0
1070
   173
1070
     1
1070
   289
1070
     2
1070
   279
1070
     2
1070
   288
1070
     1
1070
    77
1070
     3
1070
   172
1070
     1
1070
   174
1070
     0
1070
    74
1070
     0
1070
    73
1070
     0
1070
   284
1070
     8
1070
    78
1070
     8
1070
   140
1040
4.0
1070
    40
1040
20.0
1070
    42
1040
2.0
1070
    44
1040
2.0
1070
    43
1040
10.0
1070
   271
1070
     2
1070
    41
1040
4.0
1002
}
  0
DIMENSION
  5
436
330
1F
100
AcDbEntity
  8
1
  6
Continuous
 62
     7
370
     9
100
AcDbDimension
  2
Dim30
 10
1612.274066103118
 20
2630.0
 30
0.0
 11
2524.774066103119
 21
2680.0
 31
0.0
 70
   160
  1
<>
 71
     5
 42
-1.0
  3
Standard
100
AcDbAlignedDimension
 13
1612.274066103118
 23
1450.0
 33
0.0
 14
3437.274066103121
 24
1955.0
 34
0.0
100
AcDbRotatedDimension
1001
ACAD
1000
DSTYLE
1002
{
1070
   344
1005
0
1070
   343
1005
0
1070
   173
1070
     1
1070
   289
1070
     2
1070
   279
1070
     2
1070
   288
1070
     1
1070
    77
1070
     3
1070
   172
1070
     1
1070
   174
1070
     0
1070
    74
1070
     0
1070
    73
1070
     0
1070
   284
1070
     8
1070
    78
1070
     8
1070
   140
1040
4.0
1070
    40
1040
20.0
1070
    42
1040
2.0
1070
    44
1040
2.0
1070
    43
1040
10.0
1070
   271
1070
     2
1070
    41
1040
4.0
1002
}
  0
DIMENSION
  5
44A
330
1F
100
AcDbEntity
  8
1
  6
Continuous
 62
     7
370
     9
100
AcDbDimension
  2
Dim31
 10
1612.274066103123
 20
2730.0
 30
0.0
 11
2624.774066103122
 21
2780.0
 31
0.0
 70
   160
  1
<>
 71
     5
 42
-1.0
  3
Standard
100
AcDbAlignedDimension
 13
1612.274066103121
 23
1450.0
 33
0.0
 14
3637.274066103121
 24
1955.0
 34
0.0
100
AcDbRotatedDimension
1001
ACAD
1000
DSTYLE
1002
{
1070
   344
1005
0
1070
   343
1005
0
1070
   173
1070
     1
1070
   289
1070
     2
1070
   279
1070
     2
1070
   288
1070
     1
1070
    77
1070
     3
1070
   172
1070
     1
1070
   174
1070
     0
1070
    74
1070
     0
1070
    73
1070
     0
1070
   284
1070
     8
1070
    78
1070
     8
1070
   140
1040
4.0
1070
    40
1040
20.0
1070
    42
1040
2.0
1070
    44
1040
2.0
1070
    43
1040
10.0
1070
   271
1070
     2
1070
    41
1040
4.0
1002
}
  0
DIMENSION
  5
45E
330
1F
100
AcDbEntity
  8
1
  6
Continuous
 62
     7
370
     9
100
AcDbDimension
  2
Dim32
 10
1612.274066103123
 20
2830.0
 30
0.0
 11
2724.774066103122
 21
2880.0
 31
0.0
 70
   160
  1
<>
 71
     5
 42
-1.0
  3
Standard
100
AcDbAlignedDimension
 13
1612.274066103121
 23
1450.0
 33
0.0
 14
3837.274066103121
 24
1955.0
 34
0.0
100
AcDbRotatedDimension
1001
ACAD
1000
DSTYLE
1002
{
1070
   344
1005
0
1070
   343
1005
0
1070
   173
1070
     1
1070
   289
1070
     2
1070
   279
1070
     2
1070
   288
1070
     1
1070
    77
1070
     3
1070
   172
1070
     1
1070
   174
1070
     0
1070
    74
1070
     0
1070
    73
1070
     0
1070
   284
1070
     8
1070
    78
1070
     8
1070
   140
1040
4.0
1070
    40
1040
20.0
1070
    42
1040
2.0
1070
    44
1040
2.0
1070
    43
1040
10.0
1070
   271
1070
     2
1070
    41
1040
4.0
1002
}
  0
DIMENSION
  5
472
330
1F
100
AcDbEntity
  8
1
  6
Continuous
 62
     7
370
     9
100
AcDbDimension
  2
Dim33
 10
6107.274066103128
 20
2930.0
 30
0.0
 11
3859.774066103126
 21
2980.0
 31
0.0
 70
   160
  1
<>
 71
     5
 42
-1.0
  3
Standard
100
AcDbAlignedDimension
 13
6107.274066103122
 23
1955.0
 33
0.0
 14
1612.274066103118
 24
1450.0
 34
0.0
 50
0.0000000000000254
100
AcDbRotatedDimension
1001
ACAD
1000
DSTYLE
1002
{
1070
   344
1005
0
1070
   343
1005
0
1070
   173
1070
     1
1070
   289
1070
     2
1070
   279
1070
     2
1070
   288
1070
     1
1070
    77
1070
     3
1070
   172
1070
     1
1070
   174
1070
     0
1070
    74
1070
     0
1070
    73
1070
     0
1070
   284
1070
     8
1070
    78
1070
     8
1070
   140
1040
4.0
1070
    40
1040
20.0
1070
    42
1040
2.0
1070
    44
1040
2.0
1070
    43
1040
10.0
1070
   271
1070
     2
1070
    41
1040
4.0
1002
}
  0
LINE
  5
473
330
1F
100
AcDbEntity
  8
1
  6
DASHDOT
 62
     7
370
     9
100
AcDbLine
 10
6935.110402500119
 20
1598.941741911595
 30
0.0
 11
6902.77406610312
 21
1598.0
 31
0.0
  0
CIRCLE
  5
474
330
1F
100
AcDbEntity
  8
1
  6
Continuous
 62
     7
370
    30
100
AcDbCircle
 10
6937.27406610312
 20
1605.0
 30
0.0
 40
14.0
  0
CIRCLE
  5
475
330
1F
100
AcDbEntity
  8
1
  6
Continuous
 62
     7
370
    30
100
AcDbCircle
 10
6937.27406610312
 20
1730.0
 30
0.0
 40
14.0
  0
DIMENSION
  5
489
330
1F
100
AcDbEntity
  8
1
  6
Continuous
 62
     7
370
     9
100
AcDbDimension
  2
Dim34
 10
4137.27406610312
 20
2030.0
 30
0.0
 11
4197.27406610312
 21
1980.0
 31
0.0
 70
   160
  1
<>
 71
     5
 42
-1.0
  3
Standard
100
AcDbAlignedDimension
 13
3837.274066103121
 23
2030.0
 33
0.0
 14
3837.274066103121
 24
1880.0
 34
0.0
 50
89.9999999999999
100
AcDbRotatedDimension
1001
ACAD
1000
DSTYLE
1002
{
1070
   344
1005
0
1070
   343
1005
0
1070
   173
1070
     1
1070
   289
1070
     2
1070
   279
1070
     2
1070
   288
1070
     1
1070
    77
1070
     3
1070
   172
1070
     1
1070
   174
1070
     0
1070
    74
1070
     0
1070
    73
1070
     0
1070
   284
1070
     8
1070
    78
1070
     8
1070
   140
1040
4.0
1070
    40
1040
20.0
1070
    42
1040
2.0
1070
    44
1040
2.0
1070
    43
1040
10.0
1070
   271
1070
     2
1070
    41
1040
4.0
1002
}
  0
DIMENSION
  5
49D
330
1F
100
AcDbEntity
  8
1
  6
Continuous
 62
     7
370
     9
100
AcDbDimension
  2
Dim35
 10
4037.274066103121
 20
1955.0
 30
0.0
 11
3987.274066103121
 21
2014.21052631579
 31
0.0
 70
   160
  1
<>
 71
     5
 42
-1.0
  3
Standard
100
AcDbAlignedDimension
 13
3837.274066103121
 23
1955.0
 33
0.0
 14
3837.274066103121
 24
1880.0
 34
0.0
 50
89.9999999999999
100
AcDbRotatedDimension
1001
ACAD
1000
DSTYLE
1002
{
1070
   344
1005
0
1070
   343
1005
0
1070
   173
1070
     1
1070
   289
1070
     2
1070
   279
1070
     2
1070
   288
1070
     1
1070
    77
1070
     3
1070
   172
1070
     1
1070
   174
1070
     0
1070
    74
1070
     0
1070
    73
1070
     0
1070
   284
1070
     8
1070
    78
1070
     8
1070
   140
1040
4.0
1070
    40
1040
20.0
1070
    42
1040
2.0
1070
    44
1040
2.0
1070
    43
1040
10.0
1070
   271
1070
     2
1070
    41
1040
4.0
1002
}
  0
DIMENSION
  5
4B1
330
1F
100
AcDbEntity
  8
1
  6
Continuous
 62
     7
370
     9
100
AcDbDimension
  2
Dim36
 10
5937.27406610312
 20
1955.0
 30
0.0
 11
5883.816893760501
 21
2030.0
 31
0.0
 70
   160
  1
<>
 71
     5
 42
-1.0
  3
Standard
100
AcDbAlignedDimension
 13
6107.274066103122
 23
1955.0
 33
0.0
 14
6101.773550107249
 24
1880.0
 34
0.0
 50
89.9999999999999
100
AcDbRotatedDimension
1001
ACAD
1000
DSTYLE
1002
{
1070
   344
1005
0
1070
   343
1005
0
1070
   173
1070
     1
1070
   289
1070
     2
1070
   279
1070
     2
1070
   288
1070
     1
1070
    77
1070
     3
1070
   172
1070
     1
1070
   174
1070
     0
1070
    74
1070
     0
1070
    73
1070
     0
1070
   284
1070
     8
1070
    78
1070
     8
1070
   140
1040
4.0
1070
    40
1040
20.0
1070
    42
1040
2.0
1070
    44
1040
2.0
1070
    43
1040
10.0
1070
   271
1070
     2
1070
    41
1040
4.0
1002
}
  0
CIRCLE
  5
4B2
330
1F
100
AcDbEntity
  8
1
  6
Continuous
 62
     7
370
     9
100
AcDbCircle
 10
3837.274066103121
 20
1955.0
 30
0.0
 40
6.0
  0
CIRCLE
  5
4B3
330
1F
100
AcDbEntity
  8
1
  6
Continuous
 62
     7
370
     9
100
AcDbCircle
 10
3837.274066103121
 20
1955.0
 30
0.0
 40
3.0
  0
POLYLINE
  5
4B4
330
1F
100
AcDbEntity
  8
1
  6
Continuous
 62
     7
370
     9
100
AcDb2dPolyline
 66
     1
 10
0.0
 20
0.0
 30
0.0
  0
VERTEX
  5
4B6
330
4B4
100
AcDbEntity
  8
1
  6
Continuous
 62
     7
370
     9
100
AcDbVertex
100
AcDb2dVertex
 10
3837.274066103121
 20
1955.0
 30
0.0
  0
VERTEX
  5
4B7
330
4B4
100
AcDbEntity
  8
1
  6
Continuous
 62
     7
370
     9
100
AcDbVertex
100
AcDb2dVertex
 10
3972.722982511791
 20
2130.0
 30
0.0
  0
VERTEX
  5
4B8
330
4B4
100
AcDbEntity
  8
1
  6
Continuous
 62
     7
370
     9
100
AcDbVertex
100
AcDb2dVertex
 10
4410.266842160913
 20
2130.0
 30
0.0
  0
SEQEND
  5
4B5
330
4B4
100
AcDbEntity
  8
1
  6
Continuous
370
     9
  0
TEXT
  5
4B9
330
1F
100
AcDbEntity
  8
1
  6
Continuous
 62
     7
370
     9
100
AcDbText
 10
3970.266842160913
 20
2130.0
 30
0.0
 40
80.0
  1
\M+192DD\M+100CB\M+100DF\M+100B0\M+100BD\M+100CC\M+100DF\M+100DA\M+100B0\M+100C4
 51
14.99999999999999
100
AcDbText
  0
CIRCLE
  5
4BA
330
1F
100
AcDbEntity
  8
1
  6
Continuous
 62
     7
370
     9
100
AcDbCircle
 10
6107.274066103122
 20
1955.0
 30
0.0
 40
6.0
  0
CIRCLE
  5
4BB
330
1F
100
AcDbEntity
  8
1
  6
Continuous
 62
     7
370
     9
100
AcDbCircle
 10
6107.274066103122
 20
1955.0
 30
0.0
 40
3.0
  0
POLYLINE
  5
4BC
330
1F
100
AcDbEntity
  8
1
  6
Continuous
 62
     7
370
     9
100
AcDb2dPolyline
 66
     1
 10
0.0
 20
0.0
 30
0.0
  0
VERTEX
  5
4BE
330
4BC
100
AcDbEntity
  8
1
  6
Continuous
 62
     7
370
     9
100
AcDbVertex
100
AcDb2dVertex
 10
6107.274066103122
 20
1955.0
 30
0.0
  0
VERTEX
  5
4BF
330
4BC
100
AcDbEntity
  8
1
  6
Continuous
 62
     7
370
     9
100
AcDbVertex
100
AcDb2dVertex
 10
6207.27406610312
 20
2060.0
 30
0.0
  0
VERTEX
  5
4C0
330
4BC
100
AcDbEntity
  8
1
  6
Continuous
 62
     7
370
     9
100
AcDbVertex
100
AcDb2dVertex
 10
6527.27406610312
 20
2060.0
 30
0.0
  0
SEQEND
  5
4BD
330
4BC
100
AcDbEntity
  8
1
  6
Continuous
370
     9
  0
TEXT
  5
4C1
330
1F
100
AcDbEntity
  8
1
  6
Continuous
 62
     7
370
     9
100
AcDbText
 10
6207.27406610312
 20
2063.797729618163
 30
0.0
 40
80.0
  1
\M+192DD\M+18373\M+1815B\M+18358
 51
14.99999999999999
100
AcDbText
  0
DIMENSION
  5
4D5
330
1F
100
AcDbEntity
  8
1
  6
Continuous
 62
     7
370
     9
100
AcDbDimension
  2
Dim37
 10
6136.274066103122
 20
1770.0
 30
0.0
 11
6107.274066103122
 21
1820.0
 31
0.0
 70
   163
  1
\M+183D358
 71
     5
 42
-1.0
  3
Standard
100
AcDbDiametricDimension
 15
6078.274066103122
 25
1770.0
 35
0.0
 40
0.0
1001
ACAD
1000
DSTYLE
1002
{
1070
   344
1005
0
1070
   343
1005
0
1070
   173
1070
     1
1070
   289
1070
     2
1070
   279
1070
     2
1070
   288
1070
     1
1070
    77
1070
     3
1070
   172
1070
     1
1070
   174
1070
     0
1070
    74
1070
     0
1070
    73
1070
     0
1070
   284
1070
     8
1070
    78
1070
     8
1070
   140
1040
4.0
1070
    40
1040
20.0
1070
    42
1040
2.0
1070
    44
1040
2.0
1070
    43
1040
10.0
1070
   271
1070
     2
1070
    41
1040
4.0
1002
}
  0
DIMENSION
  5
4E9
330
1F
100
AcDbEntity
  8
1
  6
Continuous
 62
     7
370
     9
100
AcDbDimension
  2
Dim38
 10
1708.274066103121
 20
1610.0
 30
0.0
 11
1737.274066103121
 21
1660.0
 31
0.0
 70
   163
  1
\M+183D358
 71
     5
 42
-1.0
  3
Standard
100
AcDbDiametricDimension
 15
1766.274066103121
 25
1610.0
 35
0.0
 40
0.0
1001
ACAD
1000
DSTYLE
1002
{
1070
   344
1005
0
1070
   343
1005
0
1070
   173
1070
     1
1070
   289
1070
     2
1070
   279
1070
     2
1070
   288
1070
     1
1070
    77
1070
     3
1070
   172
1070
     1
1070
   174
1070
     0
1070
    74
1070
     0
1070
    73
1070
     0
1070
   284
1070
     8
1070
    78
1070
     8
1070
   140
1040
4.0
1070
    40
1040
20.0
1070
    42
1040
2.0
1070
    44
1040
2.0
1070
    43
1040
10.0
1070
   271
1070
     2
1070
    41
1040
4.0
1002
}
  0
DIMENSION
  5
4FD
330
1F
100
AcDbEntity
  8
1
  6
Continuous
 62
     7
370
     9
100
AcDbDimension
  2
Dim39
 10
2466.27406610312
 20
1750.0
 30
0.0
 11
2437.27406610312
 21
1800.0
 31
0.0
 70
   163
  1
\M+183D358
 71
     5
 42
-1.0
  3
Standard
100
AcDbDiametricDimension
 15
2408.27406610312
 25
1750.0
 35
0.0
 40
0.0
1001
ACAD
1000
DSTYLE
1002
{
1070
   344
1005
0
1070
   343
1005
0
1070
   173
1070
     1
1070
   289
1070
     2
1070
   279
1070
     2
1070
   288
1070
     1
1070
    77
1070
     3
1070
   172
1070
     1
1070
   174
1070
     0
1070
    74
1070
     0
1070
    73
1070
     0
1070
   284
1070
     8
1070
    78
1070
     8
1070
   140
1040
4.0
1070
    40
1040
20.0
1070
    42
1040
2.0
1070
    44
1040
2.0
1070
    43
1040
10.0
1070
   271
1070
     2
1070
    41
1040
4.0
1002
}
  0
CIRCLE
  5
4FE
330
1F
100
AcDbEntity
  8
1
  6
Continuous
 62
     7
370
    30
100
AcDbCircle
 10
6107.274066103122
 20
1955.0
 30
0.0
 40
29.0
  0
CIRCLE
  5
4FF
330
1F
100
AcDbEntity
  8
1
  6
Continuous
 62
     7
370
    30
100
AcDbCircle
 10
3837.274066103121
 20
1955.0
 30
0.0
 40
29.0
  0
CIRCLE
  5
500
330
1F
100
AcDbEntity
  8
1
  6
Continuous
 62
     7
370
    30
100
AcDbCircle
 10
3637.274066103121
 20
1955.0
 30
0.0
 40
29.0
  0
CIRCLE
  5
501
330
1F
100
AcDbEntity
  8
1
  6
Continuous
 62
     7
370
    30
100
AcDbCircle
 10
3437.274066103121
 20
1955.0
 30
0.0
 40
29.0
  0
CIRCLE
  5
502
330
1F
100
AcDbEntity
  8
1
  6
Continuous
 62
     7
370
    30
100
AcDbCircle
 10
3237.274066103121
 20
1955.0
 30
0.0
 40
29.0
  0
CIRCLE
  5
503
330
1F
100
AcDbEntity
  8
1
  6
Continuous
 62
     7
370
    30
100
AcDbCircle
 10
3037.27406610312
 20
1955.0
 30
0.0
 40
29.0
  0
CIRCLE
  5
504
330
1F
100
AcDbEntity
  8
1
  6
Continuous
 62
     7
370
    30
100
AcDbCircle
 10
2837.274066103121
 20
1955.0
 30
0.0
 40
29.0
  0
CIRCLE
  5
505
330
1F
100
AcDbEntity
  8
1
  6
Continuous
 62
     7
370
    30
100
AcDbCircle
 10
2637.274066103121
 20
1955.0
 30
0.0
 40
29.0
  0
CIRCLE
  5
506
330
1F
100
AcDbEntity
  8
1
  6
Continuous
 62
     7
370
    30
100
AcDbCircle
 10
2437.274066103121
 20
1955.0
 30
0.0
 40
29.0
  0
CIRCLE
  5
507
330
1F
100
AcDbEntity
  8
1
  6
DASHDOT
 62
     7
370
     9
100
AcDbCircle
 10
2437.274066103121
 20
1955.0
 30
0.0
 40
29.0
  0
CIRCLE
  5
508
330
1F
100
AcDbEntity
  8
1
  6
Continuous
 62
     7
370
    30
100
AcDbCircle
 10
1737.274066103121
 20
1450.0
 30
0.0
 40
29.0
  0
CIRCLE
  5
509
330
1F
100
AcDbEntity
  8
1
  6
Continuous
 62
     7
370
    30
100
AcDbCircle
 10
1612.274066103121
 20
1450.0
 30
0.0
 40
29.00000000000001
  0
CIRCLE
  5
50A
330
1F
100
AcDbEntity
  8
1
  6
Continuous
 62
     7
370
    30
100
AcDbCircle
 10
1862.274066103121
 20
1450.0
 30
0.0
 40
29.0
  0
LINE
  5
50B
330
1F
100
AcDbEntity
  8
1
  6
HIDDEN
 62
     7
370
     9
100
AcDbLine
 10
6467.27406610312
 20
1930.0
 30
0.0
 11
6467.27406610312
 21
1880.0
 31
0.0
  0
LINE
  5
50C
330
1F
100
AcDbEntity
  8
1
  6
HIDDEN
 62
     7
370
     9
100
AcDbLine
 10
6367.27406610312
 20
1930.0
 30
0.0
 11
6367.27406610312
 21
1880.0
 31
0.0
  0
LINE
  5
50D
330
1F
100
AcDbEntity
  8
1
  6
Continuous
 62
     7
370
    30
100
AcDbLine
 10
6367.27406610312
 20
2030.0
 30
0.0
 11
6367.27406610312
 21
1930.0
 31
0.0
  0
LINE
  5
50E
330
1F
100
AcDbEntity
  8
1
  6
Continuous
 62
     7
370
    30
100
AcDbLine
 10
6467.27406610312
 20
2030.0
 30
0.0
 11
6367.27406610312
 21
2030.0
 31
0.0
  0
LINE
  5
50F
330
1F
100
AcDbEntity
  8
1
  6
Continuous
 62
     7
370
    30
100
AcDbLine
 10
6467.27406610312
 20
2030.0
 30
0.0
 11
6467.27406610312
 21
1930.0
 31
0.0
  0
CIRCLE
  5
510
330
1F
100
AcDbEntity
  8
1
  6
Continuous
 62
     7
370
    30
100
AcDbCircle
 10
6742.27406610312
 20
1605.0
 30
0.0
 40
29.0
  0
CIRCLE
  5
511
330
1F
100
AcDbEntity
  8
1
  6
Continuous
 62
     7
370
    30
100
AcDbCircle
 10
6742.27406610312
 20
1730.0
 30
0.0
 40
29.0
  0
CIRCLE
  5
512
330
1F
100
AcDbEntity
  8
1
  6
Continuous
 62
     7
370
    30
100
AcDbCircle
 10
6742.27406610312
 20
1855.0
 30
0.0
 40
29.0
  0
CIRCLE
  5
513
330
1F
100
AcDbEntity
  8
1
  6
DASHDOT
 62
     7
370
     9
100
AcDbCircle
 10
6742.27406610312
 20
1855.0
 30
0.0
 40
29.0
  0
LINE
  5
514
330
1F
100
AcDbEntity
  8
1
  6
Continuous
 62
     7
370
    30
100
AcDbLine
 10
6987.27406610312
 20
1530.0
 30
0.0
 11
6977.27406610312
 21
1530.0
 31
0.0
  0
LINE
  5
515
330
1F
100
AcDbEntity
  8
1
  6
Continuous
 62
     7
370
    30
100
AcDbLine
 10
6597.27406610312
 20
1530.0
 30
0.0
 11
6977.27406610312
 21
1530.0
 31
0.0
  0
LINE
  5
516
330
1F
100
AcDbEntity
  8
1
  6
Continuous
 62
     7
370
    30
100
AcDbLine
 10
6597.27406610312
 20
1530.0
 30
0.0
 11
6487.27406610312
 21
1580.0
 31
0.0
  0
LINE
  5
517
330
1F
100
AcDbEntity
  8
1
  6
Continuous
 62
     7
370
     9
100
AcDbLine
 10
6487.27406610312
 20
1580.0
 30
0.0
 11
6597.27406610312
 21
1530.0
 31
0.0
  0
LINE
  5
518
330
1F
100
AcDbEntity
  8
1
  6
DASHDOT
 62
     7
370
     9
100
AcDbLine
 10
6918.77406610312
 20
1668.0
 30
0.0
 11
6918.77406610312
 21
1518.0
 31
0.0
  0
INSERT
  5
520
330
1F
100
AcDbEntity
  8
0
100
AcDbBlockReference
  2
*G84
 10
0.0
 20
0.0
 30
0.0
  0
LINE
  5
521
330
1F
100
AcDbEntity
  8
1
  6
Continuous
 62
     7
370
    30
100
AcDbLine
 10
6548.774066103118
 20
1518.0
 30
0.0
 11
7148.77406610312
 21
1518.0
 31
0.0
  0
LINE
  5
522
330
1F
100
AcDbEntity
  8
1
  6
Continuous
 62
     7
370
    30
100
AcDbLine
 10
6848.774066103118
 20
1518.0
 30
0.0
 11
7148.77406610312
 21
1518.0
 31
0.0
  0
LINE
  5
523
330
1F
100
AcDbEntity
  8
1
  6
Continuous
 62
     7
370
    30
100
AcDbLine
 10
6848.774066103118
 20
1218.0
 30
0.0
 11
7148.77406610312
 21
1218.0
 31
0.0
  0
DIMENSION
  5
52F
330
1F
100
AcDbEntity
  8
1
  6
Continuous
 62
     7
370
    30
100
AcDbDimension
  2
Dim40
 10
6628.774066103118
 20
1605.0
 30
0.0
 11
6588.774066103118
 21
1561.5
 31
0.0
 70
   160
  1
<>
 71
     5
 42
-1.0
  3
Standard
100
AcDbAlignedDimension
 13
6742.27406610312
 23
1605.0
 33
0.0
 14
6730.435479508193
 24
1518.0
 34
0.0
 50
89.9999999999999
100
AcDbRotatedDimension
1001
ACAD
1000
DSTYLE
1002
{
1070
   344
1005
48
1070
   343
1005
48
1070
   173
1070
     1
1070
   289
1070
     2
1070
   279
1070
     2
1070
   288
1070
     1
1070
    77
1070
     3
1070
   172
1070
     1
1070
   174
1070
     0
1070
    74
1070
     0
1070
    73
1070
     0
1070
   284
1070
     8
1070
    78
1070
     8
1070
   140
1040
4.0
1070
    40
1040
20.0
1070
    42
1040
2.0
1070
    44
1040
2.0
1070
    43
1040
10.0
1070
   271
1070
     2
1070
    41
1040
4.0
1002
}
  0
LINE
  5
530
330
1F
100
AcDbEntity
  8
1
  6
Continuous
 62
     7
370
    30
100
AcDbLine
 10
6848.774066103118
 20
1218.0
 30
0.0
 11
6848.774066103118
 21
1518.0
 31
0.0
  0
INSERT
  5
538
330
1F
100
AcDbEntity
  8
0
100
AcDbBlockReference
  2
*G86
 10
0.0
 20
0.0
 30
0.0
  0
INSERT
  5
540
330
1F
100
AcDbEntity
  8
0
100
AcDbBlockReference
  2
*G87
 10
0.0
 20
0.0
 30
0.0
  0
LINE
  5
541
330
1F
100
AcDbEntity
  8
1
  6
Continuous
 62
     7
370
    30
100
AcDbLine
 10
6848.774066103118
 20
1518.0
 30
0.0
 11
6848.774066103118
 21
1218.0
 31
0.0
  0
LINE
  5
542
330
1F
100
AcDbEntity
  8
1
  6
Continuous
 62
     7
370
    30
100
AcDbLine
 10
7288.77406610312
 20
1518.0
 30
0.0
 11
7148.77406610312
 21
1518.0
 31
0.0
  0
LINE
  5
543
330
1F
100
AcDbEntity
  8
1
  6
Continuous
 62
     7
370
    30
100
AcDbLine
 10
7288.77406610312
 20
1518.0
 30
0.0
 11
7148.77406610312
 21
1218.0
 31
0.0
  0
LINE
  5
544
330
1F
100
AcDbEntity
  8
1
  6
Continuous
 62
     7
370
    30
100
AcDbLine
 10
7148.77406610312
 20
1518.0
 30
0.0
 11
7148.77406610312
 21
1218.0
 31
0.0
  0
LINE
  5
545
330
1F
100
AcDbEntity
  8
1
  6
HIDDEN
 62
     7
370
     9
100
AcDbLine
 10
6587.27406610312
 20
1930.0
 30
0.0
 11
6487.27406610312
 21
1880.0
 31
0.0
  0
LINE
  5
546
330
1F
100
AcDbEntity
  8
1
  6
Continuous
 62
     7
370
    30
100
AcDbLine
 10
6597.27406491424
 20
1930.0
 30
0.0
 11
6587.27406610312
 21
1925.454545454546
 31
0.0
  0
LINE
  5
547
330
1F
100
AcDbEntity
  8
1
  6
Continuous
 62
     7
370
     9
100
AcDbLine
 10
6597.27406610312
 20
1930.0
 30
0.0
 11
6587.27406610312
 21
1925.454545454546
 31
0.0
  0
LINE
  5
548
330
1F
100
AcDbEntity
  8
1
  6
DASHDOT
 62
     7
370
     9
100
AcDbLine
 10
6367.27406610312
 20
1980.0
 30
0.0
 11
6467.27406610312
 21
1980.0
 31
0.0
  0
LINE
  5
549
330
1F
100
AcDbEntity
  8
1
  6
DASHDOT
 62
     7
370
     9
100
AcDbLine
 10
6417.27406610312
 20
2030.0
 30
0.0
 11
6417.27406610312
 21
1930.0
 31
0.0
  0
LINE
  5
54A
330
1F
100
AcDbEntity
  8
1
  6
Continuous
 62
     7
370
   100
100
AcDbLine
 10
6487.27406610312
 20
1980.0
 30
0.0
 11
6487.27406610312
 21
1930.0
 31
0.0
  0
LINE
  5
54B
330
1F
100
AcDbEntity
  8
1
  6
Continuous
 62
     7
370
    30
100
AcDbLine
 10
6467.27406610312
 20
2030.0
 30
0.0
 11
6367.27406610312
 21
2030.0
 31
0.0
  0
CIRCLE
  5
54C
330
1F
100
AcDbEntity
  8
1
  6
Continuous
 62
     7
370
    30
100
AcDbCircle
 10
6417.27406610312
 20
1980.0
 30
0.0
 40
15.0
  0
LINE
  5
54D
330
1F
100
AcDbEntity
  8
1
  6
Continuous
 62
     7
370
    30
100
AcDbLine
 10
6987.27406610312
 20
1920.0
 30
0.0
 11
6987.27406610312
 21
1518.0
 31
0.0
  0
LINE
  5
54E
330
1F
100
AcDbEntity
  8
1
  6
Continuous
 62
     7
370
    30
100
AcDbLine
 10
7288.77406610312
 20
1518.0
 30
0.0
 11
6988.77406610312
 21
1518.0
 31
0.0
  0
LINE
  5
54F
330
1F
100
AcDbEntity
  8
1
  6
Continuous
 62
     7
370
    30
100
AcDbLine
 10
7288.77406610312
 20
1815.0
 30
0.0
 11
7288.77406610312
 21
1518.0
 31
0.0
  0
LINE
  5
550
330
1F
100
AcDbEntity
  8
1
  6
Continuous
 62
     7
370
    30
100
AcDbLine
 10
6988.77406610312
 20
1518.0
 30
0.0
 11
6988.77406610312
 21
1815.0
 31
0.0
  0
LINE
  5
551
330
1F
100
AcDbEntity
  8
1
  6
Continuous
 62
     7
370
    30
100
AcDbLine
 10
6988.77406610312
 20
1815.0
 30
0.0
 11
7288.77406610312
 21
1815.0
 31
0.0
  0
LINE
  5
552
330
1F
100
AcDbEntity
  8
1
  6
DASHDOT
 62
     7
370
     9
100
AcDbLine
 10
6988.77406610312
 20
1605.0
 30
0.0
 11
6697.27406610312
 21
1605.0
 31
0.0
  0
LINE
  5
553
330
1F
100
AcDbEntity
  8
1
  6
DASHDOT
 62
     7
370
     9
100
AcDbLine
 10
6697.27406610312
 20
1730.0
 30
0.0
 11
6988.77406610312
 21
1730.0
 31
0.0
  0
LINE
  5
554
330
1F
100
AcDbEntity
  8
1
  6
Continuous
 62
     7
370
    30
100
AcDbLine
 10
6977.27406610312
 20
1930.0
 30
0.0
 11
6987.27406610312
 21
1920.0
 31
0.0
  0
LINE
  5
555
330
1F
100
AcDbEntity
  8
1
  6
Continuous
 62
     7
370
    30
100
AcDbLine
 10
6597.27406610312
 20
1930.0
 30
0.0
 11
6977.27406610312
 21
1930.0
 31
0.0
  0
LINE
  5
556
330
1F
100
AcDbEntity
  8
1
  6
DASHDOT
 62
     7
370
     9
100
AcDbLine
 10
6597.27406610312
 20
1960.0
 30
0.0
 11
6597.27406610312
 21
1855.0
 31
0.0
  0
LINE
  5
557
330
1F
100
AcDbEntity
  8
1
  6
DASHDOT
 62
     7
370
     9
100
AcDbLine
 10
6742.27406610312
 20
1885.0
 30
0.0
 11
6742.27406610312
 21
1575.0
 31
0.0
  0
LINE
  5
558
330
1F
100
AcDbEntity
  8
1
  6
DASHDOT
 62
     7
370
     9
100
AcDbLine
 10
6987.27406610312
 20
1855.0
 30
0.0
 11
6693.771199824501
 21
1855.0
 31
0.0
  0
LINE
  5
559
330
1F
100
AcDbEntity
  8
1
  6
Continuous
 62
     7
370
    30
100
AcDbLine
 10
5937.27406610312
 20
1880.0
 30
0.0
 11
6082.274066103122
 21
2030.0
 31
0.0
  0
LINE
  5
55A
330
1F
100
AcDbEntity
  8
1
  6
DASHDOT
 62
     7
370
     9
100
AcDbLine
 10
6171.624814128732
 20
1955.0
 30
0.0
 11
6025.978846206135
 21
1955.0
 31
0.0
  0
LINE
  5
55B
330
1F
100
AcDbEntity
  8
1
  6
DASHDOT
 62
     7
370
     9
100
AcDbLine
 10
6107.274066103122
 20
2020.682773637604
 30
0.0
 11
6107.274066103122
 21
1891.995582801885
 31
0.0
  0
LINE
  5
55C
330
1F
100
AcDbEntity
  8
1
  6
Continuous
 62
     7
370
    30
100
AcDbLine
 10
6182.274066103122
 20
2030.0
 30
0.0
 11
6082.274066103122
 21
2030.0
 31
0.0
  0
LINE
  5
55D
330
1F
100
AcDbEntity
  8
1
  6
Continuous
 62
     7
370
    30
100
AcDbLine
 10
6182.274066103122
 20
2030.0
 30
0.0
 11
6107.274066103122
 21
2030.0
 31
0.0
  0
LINE
  5
55E
330
1F
100
AcDbEntity
  8
1
  6
Continuous
 62
     7
370
    30
100
AcDbLine
 10
6182.274066103122
 20
1880.0
 30
0.0
 11
6182.274066103122
 21
2030.0
 31
0.0
  0
LINE
  5
55F
330
1F
100
AcDbEntity
  8
1
  6
HIDDEN
 62
     7
370
     9
100
AcDbLine
 10
2337.274066103121
 20
1255.0
 30
0.0
 11
2409.774066103121
 21
1252.0
 31
0.0
  0
LINE
  5
560
330
1F
100
AcDbEntity
  8
1
  6
HIDDEN
 62
     7
370
     9
100
AcDbLine
 10
2409.774066103121
 20
1177.0
 30
0.0
 11
2334.774066103121
 21
1177.0
 31
0.0
  0
LINE
  5
561
330
1F
100
AcDbEntity
  8
1
  6
HIDDEN
 62
     7
370
     9
100
AcDbLine
 10
3302.274066103121
 20
1880.0
 30
0.0
 11
3302.274066103121
 21
1580.0
 31
0.0
  0
LINE
  5
562
330
1F
100
AcDbEntity
  8
1
  6
HIDDEN
 62
     7
370
     9
100
AcDbLine
 10
3002.274066103121
 20
1880.0
 30
0.0
 11
3002.274066103121
 21
1580.0
 31
0.0
  0
LINE
  5
563
330
1F
100
AcDbEntity
  8
1
  6
Continuous
 62
     7
370
    30
100
AcDbLine
 10
2284.774066103121
 20
1380.0
 30
0.0
 11
2284.774066103121
 21
1580.0
 31
0.0
  0
LINE
  5
564
330
1F
100
AcDbEntity
  8
1
  6
Continuous
 62
     7
370
    30
100
AcDbLine
 10
2319.774066103121
 20
1330.0
 30
0.0
 11
2284.774066103121
 21
1380.0
 31
0.0
  0
LINE
  5
565
330
1F
100
AcDbEntity
  8
1
  6
Continuous
 62
     7
370
    30
100
AcDbLine
 10
2334.774066103121
 20
1330.0
 30
0.0
 11
2319.774066103121
 21
1330.0
 31
0.0
  0
LINE
  5
566
330
1F
100
AcDbEntity
  8
1
  6
Continuous
 62
     7
370
    30
100
AcDbLine
 10
2459.774066103121
 20
1380.0
 30
0.0
 11
2459.774066103121
 21
1580.0
 31
0.0
  0
LINE
  5
567
330
1F
100
AcDbEntity
  8
1
  6
Continuous
 62
     7
370
    30
100
AcDbLine
 10
2424.774066103121
 20
1330.0
 30
0.0
 11
2459.774066103121
 21
1380.0
 31
0.0
  0
LINE
  5
568
330
1F
100
AcDbEntity
  8
1
  6
Continuous
 62
     7
370
    30
100
AcDbLine
 10
2424.774066103121
 20
1330.0
 30
0.0
 11
2409.774066103121
 21
1330.0
 31
0.0
  0
LINE
  5
569
330
1F
100
AcDbEntity
  8
1
  6
Continuous
 62
     7
370
    30
100
AcDbLine
 10
2334.774066103121
 20
1580.0
 30
0.0
 11
2334.774066103121
 21
1127.0
 31
0.0
  0
LINE
  5
56A
330
1F
100
AcDbEntity
  8
1
  6
Continuous
 62
     7
370
    30
100
AcDbLine
 10
2409.774066103121
 20
1127.0
 30
0.0
 11
2409.774066103121
 21
1580.0
 31
0.0
  0
LINE
  5
56B
330
1F
100
AcDbEntity
  8
1
  6
Continuous
 62
     7
370
    30
100
AcDbLine
 10
2284.774066103121
 20
1127.0
 30
0.0
 11
2284.774066103121
 21
1115.0
 31
0.0
  0
LINE
  5
56C
330
1F
100
AcDbEntity
  8
1
  6
Continuous
 62
     7
370
    30
100
AcDbLine
 10
2459.774066103121
 20
1127.0
 30
0.0
 11
2284.774066103121
 21
1127.0
 31
0.0
  0
LINE
  5
56D
330
1F
100
AcDbEntity
  8
1
  6
Continuous
 62
     7
370
    30
100
AcDbLine
 10
2459.774066103121
 20
1115.0
 30
0.0
 11
2459.774066103121
 21
1127.0
 31
0.0
  0
LINE
  5
56E
330
1F
100
AcDbEntity
  8
1
  6
Continuous
 62
     7
370
    30
100
AcDbLine
 10
2284.774066103121
 20
1115.0
 30
0.0
 11
2459.774066103121
 21
1115.0
 31
0.0
  0
INSERT
  5
578
330
1F
100
AcDbEntity
  8
0
100
AcDbBlockReference
  2
*G88
 10
0.0
 20
0.0
 30
0.0
  0
LINE
  5
579
330
1F
100
AcDbEntity
  8
1
  6
DASHDOT
 62
     7
370
     9
100
AcDbLine
 10
2337.274066103121
 20
1955.0
 30
0.0
 11
3937.274066103121
 21
1955.0
 31
0.0
  0
LINE
  5
57A
330
1F
100
AcDbEntity
  8
1
  6
DASHDOT
 62
     7
370
     9
100
AcDbLine
 10
3837.274066103121
 20
2030.0
 30
0.0
 11
3837.274066103121
 21
1880.0
 31
0.0
  0
LINE
  5
57B
330
1F
100
AcDbEntity
  8
1
  6
DASHDOT
 62
     7
370
     9
100
AcDbLine
 10
3637.274066103121
 20
2030.0
 30
0.0
 11
3637.274066103121
 21
1880.0
 31
0.0
  0
LINE
  5
57C
330
1F
100
AcDbEntity
  8
1
  6
DASHDOT
 62
     7
370
     9
100
AcDbLine
 10
3437.274066103121
 20
2030.0
 30
0.0
 11
3437.274066103121
 21
1880.0
 31
0.0
  0
LINE
  5
57D
330
1F
100
AcDbEntity
  8
1
  6
DASHDOT
 62
     7
370
     9
100
AcDbLine
 10
3237.274066103121
 20
2030.0
 30
0.0
 11
3237.274066103121
 21
1880.0
 31
0.0
  0
LINE
  5
57E
330
1F
100
AcDbEntity
  8
1
  6
DASHDOT
 62
     7
370
     9
100
AcDbLine
 10
3037.27406610312
 20
2030.0
 30
0.0
 11
3037.274066103121
 21
1880.0
 31
0.0
  0
LINE
  5
57F
330
1F
100
AcDbEntity
  8
1
  6
DASHDOT
 62
     7
370
     9
100
AcDbLine
 10
2837.274066103121
 20
2030.0
 30
0.0
 11
2837.274066103121
 21
1880.0
 31
0.0
  0
LINE
  5
580
330
1F
100
AcDbEntity
  8
1
  6
DASHDOT
 62
     7
370
     9
100
AcDbLine
 10
2637.274066103121
 20
2030.0
 30
0.0
 11
2637.274066103121
 21
1880.0
 31
0.0
  0
LINE
  5
581
330
1F
100
AcDbEntity
  8
1
  6
DASHDOT
 62
     7
370
     9
100
AcDbLine
 10
2437.274066103121
 20
2030.0
 30
0.0
 11
2437.274066103121
 21
1880.0
 31
0.0
  0
LINE
  5
582
330
1F
100
AcDbEntity
  8
1
  6
DASHDOT
 62
     7
370
     9
100
AcDbLine
 10
1537.274066103121
 20
1450.0
 30
0.0
 11
1915.080222844618
 21
1450.0
 31
0.0
  0
LINE
  5
583
330
1F
100
AcDbEntity
  8
1
  6
Continuous
 62
     7
370
    30
100
AcDbLine
 10
1887.274066103121
 20
1680.0
 30
0.0
 11
1937.27406610312
 21
1580.0
 31
0.0
  0
LINE
  5
584
330
1F
100
AcDbEntity
  8
1
  6
Continuous
 62
     7
370
    30
100
AcDbLine
 10
1537.274066103121
 20
1580.0
 30
0.0
 11
1587.274066103121
 21
1680.000000000001
 31
0.0
  0
LINE
  5
585
330
1F
100
AcDbEntity
  8
1
  6
Continuous
 62
     7
370
    30
100
AcDbLine
 10
1937.274066103121
 20
1390.0
 30
0.0
 11
1927.274066103121
 21
1380.0
 31
0.0
  0
LINE
  5
586
330
1F
100
AcDbEntity
  8
1
  6
Continuous
 62
     7
370
    30
100
AcDbLine
 10
1547.274066103121
 20
1380.0
 30
0.0
 11
1927.274066103121
 21
1380.0
 31
0.0
  0
LINE
  5
587
330
1F
100
AcDbEntity
  8
1
  6
Continuous
 62
     7
370
    30
100
AcDbLine
 10
1937.274066103121
 20
1580.0
 30
0.0
 11
1937.274066103121
 21
1390.0
 31
0.0
  0
LINE
  5
588
330
1F
100
AcDbEntity
  8
1
  6
Continuous
 62
     7
370
    30
100
AcDbLine
 10
1547.274066103121
 20
1380.0
 30
0.0
 11
1537.274066103121
 21
1390.0
 31
0.0
  0
LINE
  5
589
330
1F
100
AcDbEntity
  8
1
  6
Continuous
 62
     7
370
    30
100
AcDbLine
 10
1537.274066103121
 20
1580.0
 30
0.0
 11
1537.274066103121
 21
1390.0
 31
0.0
  0
LINE
  5
58A
330
1F
100
AcDbEntity
  8
1
  6
DASHDOT
 62
     7
370
     9
100
AcDbLine
 10
1862.274066103121
 20
1580.0
 30
0.0
 11
1862.274066103121
 21
1380.0
 31
0.0
  0
LINE
  5
58B
330
1F
100
AcDbEntity
  8
1
  6
DASHDOT
 62
     7
370
     9
100
AcDbLine
 10
1737.274066103121
 20
1580.0
 30
0.0
 11
1737.274066103121
 21
1380.0
 31
0.0
  0
LINE
  5
58C
330
1F
100
AcDbEntity
  8
1
  6
DASHDOT
 62
     7
370
     9
100
AcDbLine
 10
1612.274066103121
 20
1580.0
 30
0.0
 11
1612.274066103121
 21
1380.0
 31
0.0
  0
LINE
  5
58D
330
1F
100
AcDbEntity
  8
1
  6
Continuous
 62
     7
370
    30
100
AcDbLine
 10
2462.274066103121
 20
1880.0
 30
0.0
 11
1587.274066103121
 21
1880.0
 31
0.0
  0
LINE
  5
58E
330
1F
100
AcDbEntity
  8
1
  6
Continuous
 62
     7
370
    30
100
AcDbLine
 10
6587.27406610312
 20
1580.0
 30
0.0
 11
1937.274066103121
 21
1580.0
 31
0.0
  0
LINE
  5
58F
330
1F
100
AcDbEntity
  8
1
  6
Continuous
 62
     7
370
    30
100
AcDbLine
 10
1587.274066103121
 20
1580.0
 30
0.0
 11
1887.274066103121
 21
1580.0
 31
0.0
  0
LINE
  5
590
330
1F
100
AcDbEntity
  8
1
  6
Continuous
 62
     7
370
    30
100
AcDbLine
 10
1887.274066103121
 20
1880.0
 30
0.0
 11
1887.274066103121
 21
1580.0
 31
0.0
  0
LINE
  5
591
330
1F
100
AcDbEntity
  8
1
  6
Continuous
 62
     7
370
    30
100
AcDbLine
 10
6287.27406610312
 20
1880.0
 30
0.0
 11
6287.27406610312
 21
1580.0
 31
0.0
  0
LINE
  5
592
330
1F
100
AcDbEntity
  8
1
  6
HIDDEN
 62
     7
370
     9
100
AcDbLine
 10
6287.27406610312
 20
1880.0
 30
0.0
 11
6287.27406610312
 21
1580.0
 31
0.0
  0
LINE
  5
593
330
1F
100
AcDbEntity
  8
1
  6
Continuous
 62
     7
370
    30
100
AcDbLine
 10
1587.274066103121
 20
1880.0
 30
0.0
 11
6587.27406610312
 21
1880.0
 31
0.0
  0
LINE
  5
594
330
1F
100
AcDbEntity
  8
1
  6
Continuous
 62
     7
370
    30
100
AcDbLine
 10
1587.274066103121
 20
1580.0
 30
0.0
 11
1587.274066103121
 21
1880.0
 31
0.0
  0
LINE
  5
595
330
1F
100
AcDbEntity
  8
1
  6
Continuous
 62
     7
370
    30
100
AcDbLine
 10
6587.27406610312
 20
1880.0
 30
0.0
 11
6587.27406610312
 21
1580.0
 31
0.0
  0
LINE
  5
596
330
1F
100
AcDbEntity
  8
1
  6
HIDDEN
 62
     7
370
     9
100
AcDbLine
 10
1937.274066103121
 20
1580.0
 30
0.0
 11
1945.420892734527
 21
1588.146826631407
 31
0.0
  0
LINE
  5
597
330
1F
100
AcDbEntity
  8
1
  6
HIDDEN
 62
     7
370
     9
100
AcDbLine
 10
1887.274066103121
 20
1880.0
 30
0.0
 11
1887.274066103121
 21
1580.0
 31
0.0
  0
ARC
  5
598
330
1F
100
AcDbEntity
  8
2
  6
Continuous
 62
     7
370
    50
100
AcDbCircle
 10
6481.774066103119
 20
1680.000000000001
 30
0.0
 40
2.5
100
AcDbArc
 50
269.9999999999998
 51
89.99999999999991
  0
ARC
  5
599
330
1F
100
AcDbEntity
  8
2
  6
Continuous
 62
     7
370
    50
100
AcDbCircle
 10
6333.774066103119
 20
1825.0
 30
0.0
 40
2.5
100
AcDbArc
 50
89.99999999999991
 51
269.9999999999998
  0
ARC
  5
59A
330
1F
100
AcDbEntity
  8
2
  6
Continuous
 62
     7
370
    50
100
AcDbCircle
 10
6333.774066103119
 20
1680.000000000001
 30
0.0
 40
2.5
100
AcDbArc
 50
89.99999999999991
 51
269.9999999999998
  0
ARC
  5
59B
330
1F
100
AcDbEntity
  8
2
  6
Continuous
 62
     7
370
    50
100
AcDbCircle
 10
6393.774066103119
 20
1680.000000000001
 30
0.0
 40
2.5
100
AcDbArc
 50
269.9999999999998
 51
89.99999999999991
  0
ARC
  5
59C
330
1F
100
AcDbEntity
  8
2
  6
Continuous
 62
     7
370
    50
100
AcDbCircle
 10
6478.114440021794
 20
1702.500000000001
 30
0.0
 40
20.0
100
AcDbArc
 50
218.5584024541762
 51
269.9999999999998
  0
LINE
  5
59D
330
1F
100
AcDbEntity
  8
2
  6
Continuous
 62
     7
370
    50
100
AcDbLine
 10
6462.47497578546
 20
1690.033759251464
 30
0.0
 11
6462.131479865456
 21
1690.464690457158
 31
0.0
  0
LINE
  5
59E
330
1F
100
AcDbEntity
  8
2
  6
Continuous
 62
     7
370
    50
100
AcDbLine
 10
6478.114440021794
 20
1682.5
 30
0.0
 11
6481.774066103119
 21
1682.5
 31
0.0
  0
LINE
  5
59F
330
1F
100
AcDbEntity
  8
2
  6
Continuous
 62
     7
370
    50
100
AcDbLine
 10
6389.37235816472
 20
1822.494235625151
 30
0.0
 11
6390.274066103119
 21
1822.500000000001
 31
0.0
  0
LINE
  5
5A0
330
1F
100
AcDbEntity
  8
2
  6
Continuous
 62
     7
370
    50
100
AcDbLine
 10
6351.774066103119
 20
1808.500000000001
 30
0.0
 11
6351.774066103119
 21
1696.500000000001
 31
0.0
  0
ARC
  5
5A1
330
1F
100
AcDbEntity
  8
2
  6
Continuous
 62
     7
370
    50
100
AcDbCircle
 10
6337.774066103119
 20
1808.500000000001
 30
0.0
 40
14.0
100
AcDbArc
 50
0.0
 51
89.99999999999991
  0
LINE
  5
5A2
330
1F
100
AcDbEntity
  8
2
  6
Continuous
 62
     7
370
    50
100
AcDbLine
 10
6333.774066103119
 20
1822.500000000001
 30
0.0
 11
6337.774066103119
 21
1822.500000000001
 31
0.0
  0
ARC
  5
5A3
330
1F
100
AcDbEntity
  8
2
  6
Continuous
 62
     7
370
    50
100
AcDbCircle
 10
6389.774066103118
 20
1808.500000000001
 30
0.0
 40
14.0
100
AcDbArc
 50
89.99999999999991
 51
179.9999999999998
  0
LINE
  5
5A4
330
1F
100
AcDbEntity
  8
2
  6
Continuous
 62
     7
370
    50
100
AcDbLine
 10
6375.774066103119
 20
1808.500000000001
 30
0.0
 11
6375.774066103119
 21
1755.5
 31
0.0
  0
LINE
  5
5A5
330
1F
100
AcDbEntity
  8
2
  6
Continuous
 62
     7
370
    50
100
AcDbLine
 10
6389.774066103118
 20
1822.500000000001
 30
0.0
 11
6390.274066103119
 21
1822.500000000001
 31
0.0
  0
ARC
  5
5A6
330
1F
100
AcDbEntity
  8
2
  6
Continuous
 62
     7
370
    50
100
AcDbCircle
 10
6337.774066103119
 20
1696.500000000001
 30
0.0
 40
14.0
100
AcDbArc
 50
269.9999999999998
 51
0.0
  0
LINE
  5
5A7
330
1F
100
AcDbEntity
  8
2
  6
Continuous
 62
     7
370
    50
100
AcDbLine
 10
6333.774066103119
 20
1682.5
 30
0.0
 11
6337.774066103119
 21
1682.5
 31
0.0
  0
ARC
  5
5A8
330
1F
100
AcDbEntity
  8
2
  6
Continuous
 62
     7
370
    50
100
AcDbCircle
 10
6389.774066103118
 20
1696.500000000001
 30
0.0
 40
14.0
100
AcDbArc
 50
179.9999999999998
 51
269.9999999999998
  0
LINE
  5
5A9
330
1F
100
AcDbEntity
  8
2
  6
Continuous
 62
     7
370
    50
100
AcDbLine
 10
6393.774066103119
 20
1682.5
 30
0.0
 11
6389.774066103118
 21
1682.5
 31
0.0
  0
LINE
  5
5AA
330
1F
100
AcDbEntity
  8
2
  6
Continuous
 62
     7
370
    50
100
AcDbLine
 10
6375.774066103119
 20
1695.5
 30
0.0
 11
6375.774066103119
 21
1696.500000000001
 31
0.0
  0
LINE
  5
5AB
330
1F
100
AcDbEntity
  8
2
  6
Continuous
 62
     7
370
    50
100
AcDbLine
 10
6333.774066103119
 20
1677.5
 30
0.0
 11
6393.774066103119
 21
1677.5
 31
0.0
  0
LINE
  5
5AC
330
1F
100
AcDbEntity
  8
2
  6
Continuous
 62
     7
370
    50
100
AcDbLine
 10
6375.774066103119
 20
1750.500000000001
 30
0.0
 11
6383.585665172871
 21
1750.500000000001
 31
0.0
  0
LINE
  5
5AD
330
1F
100
AcDbEntity
  8
2
  6
Continuous
 62
     7
370
    50
100
AcDbLine
 10
6383.585665172871
 20
1750.500000000001
 30
0.0
 11
6390.558820613808
 21
1741.751853432044
 31
0.0
  0
LINE
  5
5AE
330
1F
100
AcDbEntity
  8
2
  6
Continuous
 62
     7
370
    50
100
AcDbLine
 10
6375.774066103119
 20
1755.5
 30
0.0
 11
6386.774066103118
 21
1755.5
 31
0.0
  0
LINE
  5
5AF
330
1F
100
AcDbEntity
  8
2
  6
Continuous
 62
     7
370
    50
100
AcDbLine
 10
6333.774066103119
 20
1827.5
 30
0.0
 11
6351.774066103119
 21
1827.5
 31
0.0
  0
LINE
  5
5B0
330
1F
100
AcDbEntity
  8
2
  6
Continuous
 62
     7
370
    50
100
AcDbLine
 10
6375.774066103119
 20
1695.5
 30
0.0
 11
6375.774066103119
 21
1750.500000000001
 31
0.0
  0
LINE
  5
5B1
330
1F
100
AcDbEntity
  8
2
  6
Continuous
 62
     7
370
    50
100
AcDbLine
 10
6387.559735472386
 20
1827.5
 30
0.0
 11
6375.047242334668
 21
1827.5
 31
0.0
  0
ARC
  5
5B2
330
1F
100
AcDbEntity
  8
2
  6
Continuous
 62
     7
370
    50
100
AcDbCircle
 10
6541.274066103118
 20
1635.000000000001
 30
0.0
 40
2.5
100
AcDbArc
 50
269.9999999999998
 51
89.99999999999991
  0
ARC
  5
5B3
330
1F
100
AcDbEntity
  8
2
  6
Continuous
 62
     7
370
    50
100
AcDbCircle
 10
6478.274066103118
 20
1635.000000000001
 30
0.0
 40
2.5
100
AcDbArc
 50
89.99999999999991
 51
269.9999999999998
  0
ARC
  5
5B4
330
1F
100
AcDbEntity
  8
2
  6
Continuous
 62
     7
370
    50
100
AcDbCircle
 10
6541.274066103118
 20
1780.0
 30
0.0
 40
2.5
100
AcDbArc
 50
269.9999999999998
 51
89.99999999999991
  0
ARC
  5
5B5
330
1F
100
AcDbEntity
  8
2
  6
Continuous
 62
     7
370
    50
100
AcDbCircle
 10
6478.274066103118
 20
1780.0
 30
0.0
 40
2.5
100
AcDbArc
 50
89.99999999999991
 51
269.9999999999998
  0
ARC
  5
5B6
330
1F
100
AcDbEntity
  8
2
  6
Continuous
 62
     7
370
    50
100
AcDbCircle
 10
6537.774066103119
 20
1762.500000000001
 30
0.0
 40
15.0
100
AcDbArc
 50
89.99999999999991
 51
179.9999999999998
  0
ARC
  5
5B7
330
1F
100
AcDbEntity
  8
2
  6
Continuous
 62
     7
370
    50
100
AcDbCircle
 10
6537.774066103119
 20
1652.499999999999
 30
0.0
 40
15.0
100
AcDbArc
 50
179.9999999999998
 51
269.9999999999998
  0
LINE
  5
5B8
330
1F
100
AcDbEntity
  8
2
  6
Continuous
 62
     7
370
    50
100
AcDbLine
 10
6522.774066103119
 20
1762.500000000001
 30
0.0
 11
6522.774066103119
 21
1652.499999999999
 31
0.0
  0
ARC
  5
5B9
330
1F
100
AcDbEntity
  8
2
  6
Continuous
 62
     7
370
    50
100
AcDbCircle
 10
6481.774066103119
 20
1762.500000000001
 30
0.0
 40
15.0
100
AcDbArc
 50
0.0
 51
89.99999999999991
  0
ARC
  5
5BA
330
1F
100
AcDbEntity
  8
2
  6
Continuous
 62
     7
370
    50
100
AcDbCircle
 10
6481.774066103119
 20
1652.499999999999
 30
0.0
 40
15.0
100
AcDbArc
 50
269.9999999999998
 51
0.0
  0
LINE
  5
5BB
330
1F
100
AcDbEntity
  8
2
  6
Continuous
 62
     7
370
    50
100
AcDbLine
 10
6496.774066103119
 20
1762.500000000001
 30
0.0
 11
6496.774066103119
 21
1652.499999999999
 31
0.0
  0
LINE
  5
5BC
330
1F
100
AcDbEntity
  8
2
  6
Continuous
 62
     7
370
    50
100
AcDbLine
 10
6537.774066103119
 20
1637.5
 30
0.0
 11
6541.274066103118
 21
1637.5
 31
0.0
  0
LINE
  5
5BD
330
1F
100
AcDbEntity
  8
2
  6
Continuous
 62
     7
370
    50
100
AcDbLine
 10
6478.274066103118
 20
1637.5
 30
0.0
 11
6481.774066103119
 21
1637.5
 31
0.0
  0
LINE
  5
5BE
330
1F
100
AcDbEntity
  8
2
  6
Continuous
 62
     7
370
    50
100
AcDbLine
 10
6537.774066103119
 20
1777.500000000001
 30
0.0
 11
6541.274066103118
 21
1777.500000000001
 31
0.0
  0
LINE
  5
5BF
330
1F
100
AcDbEntity
  8
2
  6
Continuous
 62
     7
370
    50
100
AcDbLine
 10
6478.274066103118
 20
1777.500000000001
 30
0.0
 11
6481.774066103119
 21
1777.500000000001
 31
0.0
  0
LINE
  5
5C0
330
1F
100
AcDbEntity
  8
2
  6
Continuous
 62
     7
370
    50
100
AcDbLine
 10
6478.274066103118
 20
1782.5
 30
0.0
 11
6541.274066103118
 21
1782.5
 31
0.0
  0
LINE
  5
5C1
330
1F
100
AcDbEntity
  8
2
  6
Continuous
 62
     7
370
    50
100
AcDbLine
 10
6478.274066103118
 20
1632.5
 30
0.0
 11
6541.274066103118
 21
1632.5
 31
0.0
  0
ARC
  5
5C2
330
1F
100
AcDbEntity
  8
2
  6
Continuous
 62
     7
370
    50
100
AcDbCircle
 10
6415.274066103118
 20
1788.999999999999
 30
0.0
 40
38.49999999999999
100
AcDbArc
 50
268.5007266599494
 51
89.99999999999991
  0
ARC
  5
5C3
330
1F
100
AcDbEntity
  8
2
  6
Continuous
 62
     7
370
    50
100
AcDbCircle
 10
6390.274066103119
 20
1788.999999999999
 30
0.0
 40
33.5
100
AcDbArc
 50
269.9999999999998
 51
89.99999999999991
  0
LINE
  5
5C4
330
1F
100
AcDbEntity
  8
2
  6
Continuous
 62
     7
370
    50
100
AcDbLine
 10
6414.266741706458
 20
1750.513180209845
 30
0.0
 11
6463.272076697406
 21
1689.033759948471
 31
0.0
  0
LINE
  5
5C5
330
1F
100
AcDbEntity
  8
2
  6
Continuous
 62
     7
370
    50
100
AcDbLine
 10
6386.774066103118
 20
1746.5
 30
0.0
 11
6441.774066103119
 21
1677.5
 31
0.0
  0
LINE
  5
5C6
330
1F
100
AcDbEntity
  8
2
  6
Continuous
 62
     7
370
    50
100
AcDbLine
 10
6386.774066103118
 20
1755.5
 30
0.0
 11
6390.274066103119
 21
1755.5
 31
0.0
  0
LINE
  5
5C7
330
1F
100
AcDbEntity
  8
2
  6
Continuous
 62
     7
370
    50
100
AcDbLine
 10
6386.774066103118
 20
1827.5
 30
0.0
 11
6415.274066103118
 21
1827.5
 31
0.0
  0
LINE
  5
5C8
330
1F
100
AcDbEntity
  8
2
  6
Continuous
 62
     7
370
    50
100
AcDbLine
 10
6335.774066103118
 20
1827.5
 30
0.0
 11
6375.774066103119
 21
1827.5
 31
0.0
  0
LINE
  5
5C9
330
1F
100
AcDbEntity
  8
2
  6
Continuous
 62
     7
370
    50
100
AcDbLine
 10
6441.774066103119
 20
1677.5
 30
0.0
 11
6481.774066103119
 21
1677.5
 31
0.0
  0
TEXT
  5
5CA
330
1F
100
AcDbEntity
  8
1
  6
Continuous
 62
     7
370
     9
100
AcDbText
 10
1110.0
 20
5010.0
 30
0.0
 40
100.0
  1
\M+18140\M+18A54\M+18E5A\M+190A1\M+19640\M+1907D\M+18140\M+18261\M+18261\M+1817C\M+18257\M+1824F\M+1824F\M+1824F\M+18140\M+18169\M+1835E\M+18343\M+18376\M+18251\M+18145\M+19557\M+18F80\M+18345\M+18346\M+18343\M+18367\M+18E67\M+19770\M+1816A
100
AcDbText
  0
TEXT
  5
5CB
330
1F
100
AcDbEntity
  8
1
  6
Continuous
 62
     7
370
     9
100
AcDbText
 10
6423.12203929128
 20
5003.786427051115
 30
0.0
 40
100.0
  1
\M+18A54\M+18E5A\M+18EA9\M+18F64\M+18252\M+18255\M+18257\M+1824F\M+1828B\M+18287
 50
0.2750648687005741
100
AcDbText
  0
VIEWPORT
  5
3B
330
1B
100
AcDbEntity
 67
     1
  8
0
100
AcDbViewport
 10
4200.0
 20
2970.0
 30
0.0
 40
8400.0
 41
5940.0
 68
     1
 69
     1
 12
4200.0
 22
2970.0
 13
0.0
 23
0.0
 14
0.5
 24
0.5
 15
0.5
 25
0.5
 16
0.0
 26
0.0
 36
1.0
 17
0.0
 27
0.0
 37
0.0
 42
50.0
 43
0.0
 44
0.0
 45
9.0
 50
0.0
 51
0.0
 72
   100
 90
   557152
  1

281
     0
 71
     1
 74
     0
110
0.0
120
0.0
130
0.0
111
1.0
121
0.0
131
0.0
112
0.0
122
1.0
132
0.0
 79
     0
146
0.0
  0
ENDSEC
  0
SECTION
  2
OBJECTS
  0
DICTIONARY
  5
C
330
0
100
AcDbDictionary
281
     1
  3
ACAD_GROUP
350
D
  3
ACAD_LAYOUT
350
1A
  3
ACAD_MLINESTYLE
350
17
  3
ACAD_PLOTSETTINGS
350
19
  3
ACAD_PLOTSTYLENAME
350
E
  3
ACAD_TABLESTYLE
350
5CC
  3
ACAD_VISUALSTYLE
350
2A
  3
AcDbVariableDictionary
350
5CD
  0
DICTIONARY
  5
D
102
{ACAD_REACTORS
330
C
102
}
330
C
100
AcDbDictionary
281
     1
  0
DICTIONARY
  5
1A
102
{ACAD_REACTORS
330
C
102
}
330
C
100
AcDbDictionary
281
     1
  3
Layout1
350
1E
  3
Layout2
350
26
  3
Model
350
22
  0
DICTIONARY
  5
17
102
{ACAD_REACTORS
330
C
102
}
330
C
100
AcDbDictionary
281
     1
  3
Standard
350
18
  0
DICTIONARY
  5
19
102
{ACAD_REACTORS
330
C
102
}
330
C
100
AcDbDictionary
281
     1
  0
ACDBDICTIONARYWDFLT
  5
E
102
{ACAD_REACTORS
330
C
102
}
330
C
100
AcDbDictionary
281
     1
  3
Normal
350
F
100
AcDbDictionaryWithDefault
340
F
  0
DICTIONARY
  5
5CC
102
{ACAD_REACTORS
330
C
102
}
330
C
100
AcDbDictionary
281
     1
  0
DICTIONARY
  5
2A
102
{ACAD_REACTORS
330
C
102
}
330
C
100
AcDbDictionary
281
     1
  3
2dWireframe
350
2F
  3
3D Hidden
350
31
  3
3dWireframe
350
30
  3
Basic
350
32
  3
Brighten
350
36
  3
ColorChange
350
3A
  3
Conceptual
350
34
  3
Dim
350
35
  3
Facepattern
350
39
  3
Flat
350
2B
  3
FlatWithEdges
350
2C
  3
Gouraud
350
2D
  3
GouraudWithEdges
350
2E
  3
Linepattern
350
38
  3
Realistic
350
33
  3
Thicken
350
37
  0
DICTIONARY
  5
5CD
102
{ACAD_REACTORS
330
C
102
}
330
C
100
AcDbDictionary
281
     1
  3
DIMASSOC
350
5CE
  0
LAYOUT
  5
1E
102
{ACAD_REACTORS
330
1A
102
}
330
1A
100
AcDbPlotSettings
  1

  2
none_device
  4

  6

 40
0.0
 41
0.0
 42
0.0
 43
0.0
 44
0.0
 45
0.0
 46
0.0
 47
0.0
 48
0.0
 49
0.0
140
0.0
141
0.0
142
1.0
143
1.0
 70
   688
 72
     0
 73
     0
 74
     5
  7

 75
    16
147
1.0
148
0.0
149
0.0
100
AcDbLayout
  1
Layout1
 70
     1
 71
     1
 10
0.0
 20
0.0
 11
420.0
 21
297.0
 12
0.0
 22
0.0
 32
0.0
 14
0.0
 24
0.0
 34
0.0
 15
420.0
 25
297.0
 35
0.0
146
0.0
 13
0.0
 23
0.0
 33
0.0
 16
1.0
 26
0.0
 36
0.0
 17
0.0
 27
1.0
 37
0.0
 76
     0
330
1B
331
3B
  0
LAYOUT
  5
26
102
{ACAD_REACTORS
330
1A
102
}
330
1A
100
AcDbPlotSettings
  1

  2
none_device
  4

  6

 40
0.0
 41
0.0
 42
0.0
 43
0.0
 44
0.0
 45
0.0
 46
0.0
 47
0.0
 48
0.0
 49
0.0
140
0.0
141
0.0
142
1.0
143
1.0
 70
   688
 72
     0
 73
     0
 74
     5
  7

 75
    16
147
1.0
148
0.0
149
0.0
100
AcDbLayout
  1
Layout2
 70
     1
 71
     2
 10
0.0
 20
0.0
 11
0.0
 21
0.0
 12
0.0
 22
0.0
 32
0.0
 14
0.0
 24
0.0
 34
0.0
 15
0.0
 25
0.0
 35
0.0
146
0.0
 13
0.0
 23
0.0
 33
0.0
 16
1.0
 26
0.0
 36
0.0
 17
0.0
 27
1.0
 37
0.0
 76
     0
330
23
  0
LAYOUT
  5
22
102
{ACAD_REACTORS
330
1A
102
}
330
1A
100
AcDbPlotSettings
  1

  2
none_device
  4

  6

 40
0.0
 41
0.0
 42
0.0
 43
0.0
 44
0.0
 45
0.0
 46
0.0
 47
0.0
 48
0.0
 49
0.0
140
0.0
141
0.0
142
1.0
143
1.0
 70
  1712
 72
     0
 73
     0
 74
     0
  7

 75
     0
147
1.0
148
0.0
149
0.0
100
AcDbLayout
  1
Model
 70
     1
 71
     0
 10
0.0
 20
0.0
 11
8400.0
 21
5940.0
 12
0.0
 22
0.0
 32
0.0
 14
0.0
 24
0.0
 34
0.0
 15
8400.0
 25
5940.0
 35
0.0
146
0.0
 13
0.0
 23
0.0
 33
0.0
 16
1.0
 26
0.0
 36
0.0
 17
0.0
 27
1.0
 37
0.0
 76
     0
330
1F
331
29
  0
MLINESTYLE
  5
18
102
{ACAD_REACTORS
330
17
102
}
330
17
100
AcDbMlineStyle
  2
Standard
 70
     0
  3

 62
   256
 51
90.0
 52
90.0
 71
     2
 49
0.5
 62
   256
  6
BYLAYER
 49
-0.5
 62
   256
  6
BYLAYER
  0
ACDBPLACEHOLDER
  5
F
102
{ACAD_REACTORS
330
E
102
}
330
E
  0
VISUALSTYLE
  5
2F
102
{ACAD_REACTORS
330
2A
102
}
330
2A
100
AcDbVisualStyle
  2
2dWireframe
 70
     4
 71
     0
 72
     2
 73
     0
 90
        0
 40
-0.6
 41
-30.0
 62
     5
 63
     7
 74
     1
 91
        4
 64
     7
 65
   257
 75
     1
175
     1
 42
1.0
 92
        0
 66
   257
 43
1.0
 76
     1
 77
     6
 78
     2
 67
     7
 79
     5
170
     0
171
     0
290
     0
174
     0
 93
        1
 44
0.0
173
     0
291
     0
 45
0.0
1001
ACAD
1000
AcDbSavedByObjectVersion
1070
     0
  0
VISUALSTYLE
  5
31
102
{ACAD_REACTORS
330
2A
102
}
330
2A
100
AcDbVisualStyle
  2
3D Hidden
 70
     6
 71
     1
 72
     2
 73
     2
 90
        0
 40
-0.6
 41
-30.0
 62
     5
 63
     7
 74
     2
 91
        2
 64
     7
 65
   257
 75
     2
175
     1
 42
40.0
 92
        0
 66
   257
 43
1.0
 76
     1
 77
     6
 78
     2
 67
     7
 79
     3
170
     0
171
     0
290
     0
174
     0
 93
        1
 44
0.0
173
     0
291
     0
 45
0.0
1001
ACAD
1000
AcDbSavedByObjectVersion
1070
     0
  0
VISUALSTYLE
  5
30
102
{ACAD_REACTORS
330
2A
102
}
330
2A
100
AcDbVisualStyle
  2
3dWireframe
 70
     5
 71
     0
 72
     2
 73
     0
 90
        0
 40
-0.6
 41
-30.0
 62
     5
 63
     7
 74
     1
 91
        4
 64
     7
 65
   257
 75
     1
175
     1
 42
1.0
 92
        0
 66
   257
 43
1.0
 76
     1
 77
     6
 78
     2
 67
     7
 79
     5
170
     0
171
     0
290
     0
174
     0
 93
        1
 44
0.0
173
     0
291
     0
 45
0.0
1001
ACAD
1000
AcDbSavedByObjectVersion
1070
     0
  0
VISUALSTYLE
  5
32
102
{ACAD_REACTORS
330
2A
102
}
330
2A
100
AcDbVisualStyle
  2
Basic
 70
     7
 71
     1
 72
     0
 73
     1
 90
        0
 40
-0.6
 41
-30.0
 62
     5
 63
     7
 74
     0
 91
        4
 64
     7
 65
   257
 75
     1
175
     1
 42
1.0
 92
        8
 66
     7
 43
1.0
 76
     1
 77
     6
 78
     2
 67
     7
 79
     5
170
     0
171
     0
290
     0
174
     0
 93
        1
 44
0.0
173
     0
291
     1
 45
0.0
1001
ACAD
1000
AcDbSavedByObjectVersion
1070
     0
  0
VISUALSTYLE
  5
36
102
{ACAD_REACTORS
330
2A
102
}
330
2A
100
AcDbVisualStyle
  2
Brighten
 70
    12
 71
     2
 72
     2
 73
     0
 90
        0
 40
-0.6
 41
-30.0
 62
     5
 63
     7
 74
     1
 91
        4
 64
     7
 65
   257
 75
     1
175
     1
 42
1.0
 92
        8
 66
     7
 43
1.0
 76
     1
 77
     6
 78
     2
 67
     7
 79
     5
170
     0
171
     0
290
     0
174
     0
 93
        1
 44
50.0
173
     0
291
     1
 45
0.0
1001
ACAD
1000
AcDbSavedByObjectVersion
1070
     0
  0
VISUALSTYLE
  5
3A
102
{ACAD_REACTORS
330
2A
102
}
330
2A
100
AcDbVisualStyle
  2
ColorChange
 70
    16
 71
     2
 72
     2
 73
     3
 90
        0
 40
-0.6
 41
-30.0
 62
     5
 63
     8
 74
     1
 91
        4
 64
     7
 65
   257
 75
     1
175
     1
 42
1.0
 92
        8
 66
     8
 43
1.0
 76
     1
 77
     6
 78
     2
 67
     7
 79
     5
170
     0
171
     0
290
     0
174
     0
 93
        1
 44
0.0
173
     0
291
     1
 45
0.0
1001
ACAD
1000
AcDbSavedByObjectVersion
1070
     0
  0
VISUALSTYLE
  5
34
102
{ACAD_REACTORS
330
2A
102
}
330
2A
100
AcDbVisualStyle
  2
Conceptual
 70
     9
 71
     3
 72
     2
 73
     0
 90
        0
 40
-0.6
 41
-30.0
 62
     5
 63
     7
 74
     2
 91
        2
 64
     7
 65
   257
 75
     1
175
     1
 42
40.0
 92
        8
 66
     7
 43
1.0
 76
     1
 77
     6
 78
     2
 67
     7
 79
     3
170
     0
171
     0
290
     0
174
     0
 93
        1
 44
0.0
173
     0
291
     0
 45
0.0
1001
ACAD
1000
AcDbSavedByObjectVersion
1070
     0
  0
VISUALSTYLE
  5
35
102
{ACAD_REACTORS
330
2A
102
}
330
2A
100
AcDbVisualStyle
  2
Dim
 70
    11
 71
     2
 72
     2
 73
     0
 90
        0
 40
-0.6
 41
-30.0
 62
     5
 63
     7
 74
     1
 91
        4
 64
     7
 65
   257
 75
     1
175
     1
 42
1.0
 92
        8
 66
     7
 43
1.0
 76
     1
 77
     6
 78
     2
 67
     7
 79
     5
170
     0
171
     0
290
     0
174
     0
 93
        1
 44
-50.0
173
     0
291
     1
 45
0.0
1001
ACAD
1000
AcDbSavedByObjectVersion
1070
     0
  0
VISUALSTYLE
  5
39
102
{ACAD_REACTORS
330
2A
102
}
330
2A
100
AcDbVisualStyle
  2
Facepattern
 70
    15
 71
     2
 72
     2
 73
     0
 90
        0
 40
-0.6
 41
-30.0
 62
     5
 63
     7
 74
     1
 91
        4
 64
     7
 65
   257
 75
     1
175
     1
 42
1.0
 92
        8
 66
     7
 43
1.0
 76
     1
 77
     6
 78
     2
 67
     7
 79
     5
170
     0
171
     0
290
     0
174
     0
 93
        1
 44
0.0
173
     0
291
     1
 45
0.0
1001
ACAD
1000
AcDbSavedByObjectVersion
1070
     0
  0
VISUALSTYLE
  5
2B
102
{ACAD_REACTORS
330
2A
102
}
330
2A
100
AcDbVisualStyle
  2
Flat
 70
     0
 71
     2
 72
     1
 73
     1
 90
        2
 40
-0.6
 41
30.0
 62
     5
 63
     7
 74
     0
 91
        4
 64
     7
 65
   257
 75
     1
175
     1
 42
1.0
 92
        8
 66
     7
 43
1.0
 76
     1
 77
     6
 78
     2
 67
     7
 79
     5
170
     0
171
     0
290
     0
174
     0
 93
       13
 44
0.0
173
     0
291
     1
 45
0.0
1001
ACAD
1000
AcDbSavedByObjectVersion
1070
     0
  0
VISUALSTYLE
  5
2C
102
{ACAD_REACTORS
330
2A
102
}
330
2A
100
AcDbVisualStyle
  2
FlatWithEdges
 70
     1
 71
     2
 72
     1
 73
     1
 90
        2
 40
-0.6
 41
30.0
 62
     5
 63
     7
 74
     1
 91
        4
 64
     7
 65
   257
 75
     1
175
     1
 42
1.0
 92
        0
 66
   257
 43
1.0
 76
     1
 77
     6
 78
     2
 67
     7
 79
     5
170
     0
171
     0
290
     0
174
     0
 93
       13
 44
0.0
173
     0
291
     1
 45
0.0
1001
ACAD
1000
AcDbSavedByObjectVersion
1070
     0
  0
VISUALSTYLE
  5
2D
102
{ACAD_REACTORS
330
2A
102
}
330
2A
100
AcDbVisualStyle
  2
Gouraud
 70
     2
 71
     2
 72
     2
 73
     1
 90
        2
 40
-0.6
 41
30.0
 62
     5
 63
     7
 74
     0
 91
        4
 64
     7
 65
   257
 75
     1
175
     1
 42
1.0
 92
        0
 66
     7
 43
1.0
 76
     1
 77
     6
 78
     2
 67
     7
 79
     5
170
     0
171
     0
290
     0
174
     0
 93
       13
 44
0.0
173
     0
291
     1
 45
0.0
1001
ACAD
1000
AcDbSavedByObjectVersion
1070
     0
  0
VISUALSTYLE
  5
2E
102
{ACAD_REACTORS
330
2A
102
}
330
2A
100
AcDbVisualStyle
  2
GouraudWithEdges
 70
     3
 71
     2
 72
     2
 73
     1
 90
        2
 40
-0.6
 41
30.0
 62
     5
 63
     7
 74
     1
 91
        4
 64
     7
 65
   257
 75
     1
175
     1
 42
1.0
 92
        0
 66
   257
 43
1.0
 76
     1
 77
     6
 78
     2
 67
     7
 79
     5
170
     0
171
     0
290
     0
174
     0
 93
       13
 44
0.0
173
     0
291
     1
 45
0.0
1001
ACAD
1000
AcDbSavedByObjectVersion
1070
     0
  0
VISUALSTYLE
  5
38
102
{ACAD_REACTORS
330
2A
102
}
330
2A
100
AcDbVisualStyle
  2
Linepattern
 70
    14
 71
     2
 72
     2
 73
     0
 90
        0
 40
-0.6
 41
-30.0
 62
     5
 63
     7
 74
     1
 91
        4
 64
     7
 65
   257
 75
     7
175
     7
 42
1.0
 92
        8
 66
     7
 43
1.0
 76
     1
 77
     6
 78
     2
 67
     7
 79
     5
170
     0
171
     0
290
     0
174
     0
 93
        1
 44
0.0
173
     0
291
     1
 45
0.0
1001
ACAD
1000
AcDbSavedByObjectVersion
1070
     0
  0
VISUALSTYLE
  5
33
102
{ACAD_REACTORS
330
2A
102
}
330
2A
100
AcDbVisualStyle
  2
Realistic
 70
     8
 71
     2
 72
     2
 73
     0
 90
        0
 40
-0.6
 41
-30.0
 62
     5
 63
     7
 74
     1
 91
        0
 64
     7
 65
   257
 75
     1
175
     1
 42
1.0
 92
        8
 66
     8
 43
1.0
 76
     1
 77
     6
 78
     2
 67
     7
 79
     5
170
     0
171
     0
290
     0
174
     0
 93
       13
 44
0.0
173
     0
291
     0
 45
0.0
1001
ACAD
1000
AcDbSavedByObjectVersion
1070
     0
  0
VISUALSTYLE
  5
37
102
{ACAD_REACTORS
330
2A
102
}
330
2A
100
AcDbVisualStyle
  2
Thicken
 70
    13
 71
     2
 72
     2
 73
     0
 90
        0
 40
-0.6
 41
-30.0
 62
     5
 63
     7
 74
     1
 91
        4
 64
     7
 65
   257
 75
     1
175
     1
 42
1.0
 92
       12
 66
     7
 43
1.0
 76
     1
 77
     6
 78
     2
 67
     7
 79
     5
170
     0
171
     0
290
     0
174
     0
 93
        1
 44
0.0
173
     0
291
     1
 45
0.0
1001
ACAD
1000
AcDbSavedByObjectVersion
1070
     0
  0
DICTIONARYVAR
  5
5CE
102
{ACAD_REACTORS
330
5CD
102
}
330
5CD
100
DictionaryVariables
280
     0
  1
1
  0
ENDSEC
  0
EOF
